  0
SECTION
  2
HEADER
  9
$ACADVER
  1
AC1032
  9
$ACADMAINTVER
 90
      228
  9
$DWGCODEPAGE
  3
ANSI_932
  9
$LASTSAVEDBY
  1
FTM530544
  9
$REQUIREDVERSIONS
160
                 0
  9
$INSBASE
 10
0.0
 20
0.0
 30
0.0
  9
$EXTMIN
 10
411.8550503731139
 20
252.1287000479499
 30
-0.0015258207003583
  9
$EXTMAX
 10
621.8960953823784
 20
549.1475018507355
 30
0.0000000349246037
  9
$LIMMIN
 10
0.0
 20
0.0
  9
$LIMMAX
 10
420.0
 20
297.0
  9
$ORTHOMODE
 70
     1
  9
$REGENMODE
 70
     1
  9
$FILLMODE
 70
     1
  9
$QTEXTMODE
 70
     0
  9
$MIRRTEXT
 70
     0
  9
$LTSCALE
 40
1.0
  9
$ATTMODE
 70
     1
  9
$TEXTSIZE
 40
2.5
  9
$TRACEWID
 40
1.0
  9
$TEXTSTYLE
  7
Standard
  9
$CLAYER
  8
0
  9
$CELTYPE
  6
ByLayer
  9
$CECOLOR
 62
   256
  9
$CELTSCALE
 40
1.0
  9
$DISPSILH
 70
     0
  9
$DIMSCALE
 40
1.0
  9
$DIMASZ
 40
2.5
  9
$DIMEXO
 40
0.625
  9
$DIMDLI
 40
3.75
  9
$DIMRND
 40
0.0
  9
$DIMDLE
 40
0.0
  9
$DIMEXE
 40
1.25
  9
$DIMTP
 40
0.0
  9
$DIMTM
 40
0.0
  9
$DIMTXT
 40
2.5
  9
$DIMCEN
 40
2.5
  9
$DIMTSZ
 40
0.0
  9
$DIMTOL
 70
     0
  9
$DIMLIM
 70
     0
  9
$DIMTIH
 70
     0
  9
$DIMTOH
 70
     0
  9
$DIMSE1
 70
     0
  9
$DIMSE2
 70
     0
  9
$DIMTAD
 70
     1
  9
$DIMZIN
 70
     8
  9
$DIMBLK
  1

  9
$DIMASO
 70
     1
  9
$DIMSHO
 70
     1
  9
$DIMPOST
  1

  9
$DIMAPOST
  1

  9
$DIMALT
 70
     0
  9
$DIMALTD
 70
     3
  9
$DIMALTF
 40
0.03937007874016
  9
$DIMLFAC
 40
1.0
  9
$DIMTOFL
 70
     1
  9
$DIMTVP
 40
0.0
  9
$DIMTIX
 70
     0
  9
$DIMSOXD
 70
     0
  9
$DIMSAH
 70
     0
  9
$DIMBLK1
  1

  9
$DIMBLK2
  1

  9
$DIMSTYLE
  2
ISO-25
  9
$DIMCLRD
 70
     0
  9
$DIMCLRE
 70
     0
  9
$DIMCLRT
 70
     0
  9
$DIMTFAC
 40
1.0
  9
$DIMGAP
 40
0.625
  9
$DIMJUST
 70
     0
  9
$DIMSD1
 70
     0
  9
$DIMSD2
 70
     0
  9
$DIMTOLJ
 70
     0
  9
$DIMTZIN
 70
     8
  9
$DIMALTZ
 70
     0
  9
$DIMALTTZ
 70
     0
  9
$DIMUPT
 70
     0
  9
$DIMDEC
 70
     2
  9
$DIMTDEC
 70
     2
  9
$DIMALTU
 70
     2
  9
$DIMALTTD
 70
     3
  9
$DIMTXSTY
  7
Standard
  9
$DIMAUNIT
 70
     0
  9
$DIMADEC
 70
     0
  9
$DIMALTRND
 40
0.0
  9
$DIMAZIN
 70
     0
  9
$DIMDSEP
 70
    44
  9
$DIMATFIT
 70
     3
  9
$DIMFRAC
 70
     0
  9
$DIMLDRBLK
  1

  9
$DIMLUNIT
 70
     2
  9
$DIMLWD
 70
    -2
  9
$DIMLWE
 70
    -2
  9
$DIMTMOVE
 70
     0
  9
$DIMFXL
 40
1.0
  9
$DIMFXLON
 70
     0
  9
$DIMJOGANG
 40
0.7853981633974483
  9
$DIMTFILL
 70
     0
  9
$DIMTFILLCLR
 70
     0
  9
$DIMARCSYM
 70
     0
  9
$DIMLTYPE
  6

  9
$DIMLTEX1
  6

  9
$DIMLTEX2
  6

  9
$DIMTXTDIRECTION
 70
     0
  9
$LUNITS
 70
     2
  9
$LUPREC
 70
     4
  9
$SKETCHINC
 40
1.0
  9
$FILLETRAD
 40
0.0
  9
$AUNITS
 70
     0
  9
$AUPREC
 70
     0
  9
$MENU
  1
.
  9
$ELEVATION
 40
0.0
  9
$PELEVATION
 40
0.0
  9
$THICKNESS
 40
0.0
  9
$LIMCHECK
 70
     0
  9
$CHAMFERA
 40
0.0
  9
$CHAMFERB
 40
0.0
  9
$CHAMFERC
 40
0.0
  9
$CHAMFERD
 40
0.0
  9
$SKPOLY
 70
     0
  9
$TDCREATE
 40
2459279.534224537
  9
$TDUCREATE
 40
2459279.159224537
  9
$TDUPDATE
 40
2460185.747916667
  9
$TDUUPDATE
 40
2460185.372916667
  9
$TDINDWG
 40
0.0273611111
  9
$TDUSRTIMER
 40
0.0273611111
  9
$USRTIMER
 70
     1
  9
$ANGBASE
 50
0.0
  9
$ANGDIR
 70
     0
  9
$PDMODE
 70
     0
  9
$PDSIZE
 40
0.0
  9
$PLINEWID
 40
0.0
  9
$SPLFRAME
 70
     0
  9
$SPLINETYPE
 70
     6
  9
$SPLINESEGS
 70
     8
  9
$HANDSEED
  5
CD5
  9
$SURFTAB1
 70
     6
  9
$SURFTAB2
 70
     6
  9
$SURFTYPE
 70
     6
  9
$SURFU
 70
     6
  9
$SURFV
 70
     6
  9
$UCSBASE
  2

  9
$UCSNAME
  2

  9
$UCSORG
 10
0.0
 20
0.0
 30
0.0
  9
$UCSXDIR
 10
1.0
 20
0.0
 30
0.0
  9
$UCSYDIR
 10
0.0
 20
1.0
 30
0.0
  9
$UCSORTHOREF
  2

  9
$UCSORTHOVIEW
 70
     0
  9
$UCSORGTOP
 10
0.0
 20
0.0
 30
0.0
  9
$UCSORGBOTTOM
 10
0.0
 20
0.0
 30
0.0
  9
$UCSORGLEFT
 10
0.0
 20
0.0
 30
0.0
  9
$UCSORGRIGHT
 10
0.0
 20
0.0
 30
0.0
  9
$UCSORGFRONT
 10
0.0
 20
0.0
 30
0.0
  9
$UCSORGBACK
 10
0.0
 20
0.0
 30
0.0
  9
$PUCSBASE
  2

  9
$PUCSNAME
  2

  9
$PUCSORG
 10
0.0
 20
0.0
 30
0.0
  9
$PUCSXDIR
 10
1.0
 20
0.0
 30
0.0
  9
$PUCSYDIR
 10
0.0
 20
1.0
 30
0.0
  9
$PUCSORTHOREF
  2

  9
$PUCSORTHOVIEW
 70
     0
  9
$PUCSORGTOP
 10
0.0
 20
0.0
 30
0.0
  9
$PUCSORGBOTTOM
 10
0.0
 20
0.0
 30
0.0
  9
$PUCSORGLEFT
 10
0.0
 20
0.0
 30
0.0
  9
$PUCSORGRIGHT
 10
0.0
 20
0.0
 30
0.0
  9
$PUCSORGFRONT
 10
0.0
 20
0.0
 30
0.0
  9
$PUCSORGBACK
 10
0.0
 20
0.0
 30
0.0
  9
$USERI1
 70
     0
  9
$USERI2
 70
     0
  9
$USERI3
 70
     0
  9
$USERI4
 70
     0
  9
$USERI5
 70
     0
  9
$USERR1
 40
0.0
  9
$USERR2
 40
0.0
  9
$USERR3
 40
0.0
  9
$USERR4
 40
0.0
  9
$USERR5
 40
0.0
  9
$WORLDVIEW
 70
     1
  9
$SHADEDGE
 70
     3
  9
$SHADEDIF
 70
    70
  9
$TILEMODE
 70
     1
  9
$MAXACTVP
 70
    64
  9
$PINSBASE
 10
0.0
 20
0.0
 30
0.0
  9
$PLIMCHECK
 70
     0
  9
$PEXTMIN
 10
0.0
 20
0.0
 30
0.0
  9
$PEXTMAX
 10
0.0
 20
0.0
 30
0.0
  9
$PLIMMIN
 10
0.0
 20
0.0
  9
$PLIMMAX
 10
12.0
 20
9.0
  9
$UNITMODE
 70
     0
  9
$VISRETAIN
 70
     1
  9
$PLINEGEN
 70
     0
  9
$PSLTSCALE
 70
     1
  9
$TREEDEPTH
 70
  3020
  9
$CMLSTYLE
  2
Standard
  9
$CMLJUST
 70
     0
  9
$CMLSCALE
 40
20.0
  9
$PROXYGRAPHICS
 70
     1
  9
$MEASUREMENT
 70
     1
  9
$CELWEIGHT
370
    -1
  9
$ENDCAPS
280
     0
  9
$JOINSTYLE
280
     0
  9
$LWDISPLAY
290
     0
  9
$INSUNITS
 70
     4
  9
$HYPERLINKBASE
  1

  9
$STYLESHEET
  1

  9
$XEDIT
290
     1
  9
$CEPSNTYPE
380
     0
  9
$PSTYLEMODE
290
     1
  9
$FINGERPRINTGUID
  2
{AC4A2324-3706-F246-9B1C-1BA19572D39D}
  9
$VERSIONGUID
  2
{5F29BD92-88D3-3E41-8CF7-4E7B698DABA1}
  9
$EXTNAMES
290
     1
  9
$PSVPSCALE
 40
0.0
  9
$OLESTARTUP
290
     0
  9
$SORTENTS
280
   127
  9
$INDEXCTL
280
     0
  9
$HIDETEXT
280
     1
  9
$XCLIPFRAME
280
     2
  9
$HALOGAP
280
     0
  9
$OBSCOLOR
 70
   257
  9
$OBSLTYPE
280
     0
  9
$INTERSECTIONDISPLAY
280
     0
  9
$INTERSECTIONCOLOR
 70
   257
  9
$DIMASSOC
280
     2
  9
$PROJECTNAME
  1

  9
$CAMERADISPLAY
290
     0
  9
$LENSLENGTH
 40
50.0
  9
$CAMERAHEIGHT
 40
0.0
  9
$STEPSPERSEC
 40
2.0
  9
$STEPSIZE
 40
6.0
  9
$3DDWFPREC
 40
2.0
  9
$PSOLWIDTH
 40
5.0
  9
$PSOLHEIGHT
 40
80.0
  9
$LOFTANG1
 40
1.570796326794896
  9
$LOFTANG2
 40
1.570796326794896
  9
$LOFTMAG1
 40
0.0
  9
$LOFTMAG2
 40
0.0
  9
$LOFTPARAM
 70
     7
  9
$LOFTNORMALS
280
     1
  9
$LATITUDE
 40
37.795
  9
$LONGITUDE
 40
-122.394
  9
$NORTHDIRECTION
 40
0.0
  9
$TIMEZONE
 70
 -8000
  9
$LIGHTGLYPHDISPLAY
280
     1
  9
$TILEMODELIGHTSYNCH
280
     1
  9
$CMATERIAL
347
EC
  9
$SOLIDHIST
280
     0
  9
$SHOWHIST
280
     1
  9
$DWFFRAME
280
     2
  9
$DGNFRAME
280
     0
  9
$REALWORLDSCALE
290
     1
  9
$INTERFERECOLOR
 62
     1
  9
$INTERFEREOBJVS
345
F9
  9
$INTERFEREVPVS
346
F6
  9
$CSHADOW
280
     0
  9
$SHADOWPLANELOCATION
 40
0.0
  0
ENDSEC
  0
SECTION
  2
CLASSES
  0
CLASS
  1
ACDBDICTIONARYWDFLT
  2
AcDbDictionaryWithDefault
  3
ObjectDBX Classes
 90
        0
 91
        1
280
     0
281
     0
  0
CLASS
  1
DICTIONARYVAR
  2
AcDbDictionaryVar
  3
ObjectDBX Classes
 90
        0
 91
       13
280
     0
281
     0
  0
CLASS
  1
TABLESTYLE
  2
AcDbTableStyle
  3
ObjectDBX Classes
 90
     4095
 91
        1
280
     0
281
     0
  0
CLASS
  1
MATERIAL
  2
AcDbMaterial
  3
ObjectDBX Classes
 90
     1153
 91
        3
280
     0
281
     0
  0
CLASS
  1
VISUALSTYLE
  2
AcDbVisualStyle
  3
ObjectDBX Classes
 90
     4095
 91
       24
280
     0
281
     0
  0
CLASS
  1
SCALE
  2
AcDbScale
  3
ObjectDBX Classes
 90
     1153
 91
       17
280
     0
281
     0
  0
CLASS
  1
MLEADERSTYLE
  2
AcDbMLeaderStyle
  3
ACDB_MLEADERSTYLE_CLASS
 90
     4095
 91
        2
280
     0
281
     0
  0
CLASS
  1
CELLSTYLEMAP
  2
AcDbCellStyleMap
  3
ObjectDBX Classes
 90
     1152
 91
        2
280
     0
281
     0
  0
CLASS
  1
EXACXREFPANELOBJECT
  2
ExAcXREFPanelObject
  3
EXAC_ESW
 90
     1025
 91
        0
280
     0
281
     0
  0
CLASS
  1
NPOCOLLECTION
  2
AcDbImpNonPersistentObjectsCollection
  3
ObjectDBX Classes
 90
     1153
 91
        0
280
     0
281
     0
  0
CLASS
  1
LAYER_INDEX
  2
AcDbLayerIndex
  3
ObjectDBX Classes
 90
        0
 91
        0
280
     0
281
     0
  0
CLASS
  1
SPATIAL_INDEX
  2
AcDbSpatialIndex
  3
ObjectDBX Classes
 90
        0
 91
        0
280
     0
281
     0
  0
CLASS
  1
IDBUFFER
  2
AcDbIdBuffer
  3
ObjectDBX Classes
 90
        0
 91
        0
280
     0
281
     0
  0
CLASS
  1
ACDBSECTIONVIEWSTYLE
  2
AcDbSectionViewStyle
  3
ObjectDBX Classes
 90
     1025
 91
        2
280
     0
281
     0
  0
CLASS
  1
ACDBDETAILVIEWSTYLE
  2
AcDbDetailViewStyle
  3
ObjectDBX Classes
 90
     1025
 91
        2
280
     0
281
     0
  0
CLASS
  1
MULTILEADER
  2
AcDbMLeader
  3
ACDB_MLEADER_CLASS
 90
     1025
 91
       11
280
     0
281
     1
  0
CLASS
  1
SORTENTSTABLE
  2
AcDbSortentsTable
  3
ObjectDBX Classes
 90
        0
 91
        0
280
     0
281
     0
  0
CLASS
  1
PLOTSETTINGS
  2
AcDbPlotSettings
  3
ObjectDBX Classes
 90
        0
 91
        1
280
     0
281
     0
  0
ENDSEC
  0
SECTION
  2
TABLES
  0
TABLE
  2
VPORT
  5
8
330
0
100
AcDbSymbolTable
 70
     1
  0
VPORT
  5
EA
330
8
100
AcDbSymbolTableRecord
100
AcDbViewportTableRecord
  2
*Active
 70
     0
 10
0.0
 20
0.0
 11
1.0
 21
1.0
 12
516.8517858127978
 22
408.5012032632919
 13
0.0
 23
0.0
 14
10.0
 24
10.0
 15
10.0
 25
10.0
 16
0.0
 26
0.0
 36
1.0
 17
0.0
 27
0.0
 37
0.0
 40
293.8927831389654
 41
2.05231866825208
 42
50.0
 43
0.0
 44
0.0
 50
0.0
 51
0.0
 71
     0
 72
  1000
 73
     1
 74
     3
 75
     0
 76
     1
 77
     0
 78
     0
281
     0
 65
     1
110
0.0
120
0.0
130
0.0
111
1.0
121
0.0
131
0.0
112
0.0
122
1.0
132
0.0
 79
     0
146
0.0
348
F5
 60
     3
 61
     5
292
     1
282
     1
141
0.0
142
0.0
 63
   250
421
  3355443
1001
ACAD_NAV_VCDISPLAY
1070
     3
  0
ENDTAB
  0
TABLE
  2
LTYPE
  5
5
330
0
100
AcDbSymbolTable
 70
     4
  0
LTYPE
  5
14
330
5
100
AcDbSymbolTableRecord
100
AcDbLinetypeTableRecord
  2
ByBlock
 70
     0
  3

 72
    65
 73
     0
 40
0.0
  0
LTYPE
  5
15
330
5
100
AcDbSymbolTableRecord
100
AcDbLinetypeTableRecord
  2
ByLayer
 70
     0
  3

 72
    65
 73
     0
 40
0.0
  0
LTYPE
  5
16
330
5
100
AcDbSymbolTableRecord
100
AcDbLinetypeTableRecord
  2
Continuous
 70
     0
  3
Solid line
 72
    65
 73
     0
 40
0.0
  0
LTYPE
  5
2F1
330
5
100
AcDbSymbolTableRecord
100
AcDbLinetypeTableRecord
  2
HIDDEN
 70
     0
  3
HIDDEN
 72
    65
 73
     2
 40
0.375
 49
0.25
 74
     0
 49
-0.125
 74
     0
  0
LTYPE
  5
2F2
330
5
100
AcDbSymbolTableRecord
100
AcDbLinetypeTableRecord
  2
CENTER
 70
     0
  3
CENTER
 72
    65
 73
     4
 40
2.0
 49
1.25
 74
     0
 49
-0.25
 74
     0
 49
0.25
 74
     0
 49
-0.25
 74
     0
  0
ENDTAB
  0
TABLE
  2
LAYER
  5
2
102
{ACAD_XDICTIONARY
360
1FF
102
}
330
0
100
AcDbSymbolTable
 70
     7
  0
LAYER
  5
10
102
{ACAD_XDICTIONARY
360
13C
102
}
330
2
100
AcDbSymbolTableRecord
100
AcDbLayerTableRecord
  2
0
 70
     0
 62
     7
  6
Continuous
370
    -3
390
F
347
EE
348
0
  0
LAYER
  5
2F3
102
{ACAD_XDICTIONARY
360
2F4
102
}
330
2
100
AcDbSymbolTableRecord
100
AcDbLayerTableRecord
  2
図面枠
 70
     0
 62
     7
  6
Continuous
370
    -3
390
F
347
EE
348
0
  0
LAYER
  5
2F5
330
2
100
AcDbSymbolTableRecord
100
AcDbLayerTableRecord
  2
躯体・通線物他
 70
     0
 62
     7
  6
Continuous
370
    -3
390
F
347
EE
348
0
1001
AcAecLayerStandard
1000

1000

1001
AcCmTransparency
1071
        0
  0
LAYER
  5
2F6
330
2
100
AcDbSymbolTableRecord
100
AcDbLayerTableRecord
  2
防火材
 70
     0
 62
     7
  6
Continuous
370
    -3
390
F
347
EE
348
0
1001
AcAecLayerStandard
1000

1000

1001
AcCmTransparency
1071
        0
  0
LAYER
  5
2F7
330
2
100
AcDbSymbolTableRecord
100
AcDbLayerTableRecord
  2
文字
 70
     0
 62
     7
  6
Continuous
370
    -3
390
F
347
EE
348
0
1001
AcAecLayerStandard
1000

1000

1001
AcCmTransparency
1071
        0
  0
LAYER
  5
2F8
330
2
100
AcDbSymbolTableRecord
100
AcDbLayerTableRecord
  2
寸法
 70
     0
 62
     7
  6
Continuous
370
    -3
390
F
347
EE
348
0
1001
AcAecLayerStandard
1000

1000

1001
AcCmTransparency
1071
        0
  0
LAYER
  5
2F9
330
2
100
AcDbSymbolTableRecord
100
AcDbLayerTableRecord
  2
Defpoints
 70
     0
 62
     7
  6
Continuous
290
     0
370
    -3
390
F
347
EE
348
0
  0
ENDTAB
  0
TABLE
  2
STYLE
  5
3
330
0
100
AcDbSymbolTable
 70
     4
  0
STYLE
  5
11
330
3
100
AcDbSymbolTableRecord
100
AcDbTextStyleTableRecord
  2
Standard
 70
     0
 40
0.0
 41
1.0
 50
0.0
 71
     0
 42
2.5
  3
arial.ttf
  4

1001
ACAD
1000
Arial
1071
       34
  0
STYLE
  5
132
330
3
100
AcDbSymbolTableRecord
100
AcDbTextStyleTableRecord
  2
Annotative
 70
     0
 40
0.0
 41
1.0
 50
0.0
 71
     0
 42
2.5
  3
arial.ttf
  4

1001
AcadAnnotative
1000
AnnotativeData
1002
{
1070
     1
1070
     1
1002
}
1001
ACAD
1000
Arial
1071
       34
  0
STYLE
  5
2FA
330
3
100
AcDbSymbolTableRecord
100
AcDbTextStyleTableRecord
  2
ｍｏｊｉ
 70
     0
 40
0.0
 41
1.0
 50
0.0
 71
     0
 42
88.17576854348827
  3
txt.shx
  4
BIGFONT.SHX
1001
AcadAnnotative
1000
AnnotativeData
1002
{
1070
     1
1070
     0
1002
}
  0
ENDTAB
  0
TABLE
  2
VIEW
  5
6
330
0
100
AcDbSymbolTable
 70
     1
  0
ENDTAB
  0
TABLE
  2
UCS
  5
7
330
0
100
AcDbSymbolTable
 70
     0
  0
ENDTAB
  0
TABLE
  2
APPID
  5
9
330
0
100
AcDbSymbolTable
 70
    14
  0
APPID
  5
12
330
9
100
AcDbSymbolTableRecord
100
AcDbRegAppTableRecord
  2
ACAD
 70
     0
  0
APPID
  5
9E
330
9
100
AcDbSymbolTableRecord
100
AcDbRegAppTableRecord
  2
ACAD_PSEXT
 70
     0
  0
APPID
  5
133
330
9
100
AcDbSymbolTableRecord
100
AcDbRegAppTableRecord
  2
AcadAnnoPO
 70
     0
  0
APPID
  5
134
330
9
100
AcDbSymbolTableRecord
100
AcDbRegAppTableRecord
  2
AcadAnnotative
 70
     0
  0
APPID
  5
135
330
9
100
AcDbSymbolTableRecord
100
AcDbRegAppTableRecord
  2
ACAD_DSTYLE_DIMJAG
 70
     0
  0
APPID
  5
136
330
9
100
AcDbSymbolTableRecord
100
AcDbRegAppTableRecord
  2
ACAD_DSTYLE_DIMTALN
 70
     0
  0
APPID
  5
165
330
9
100
AcDbSymbolTableRecord
100
AcDbRegAppTableRecord
  2
ACAD_MLEADERVER
 70
     0
  0
APPID
  5
217
330
9
100
AcDbSymbolTableRecord
100
AcDbRegAppTableRecord
  2
ACAD_NAV_VCDISPLAY
 70
     0
  0
APPID
  5
2FB
330
9
100
AcDbSymbolTableRecord
100
AcDbRegAppTableRecord
  2
AcAecLayerStandard
 70
     0
  0
APPID
  5
2FC
330
9
100
AcDbSymbolTableRecord
100
AcDbRegAppTableRecord
  2
AcCmTransparency
 70
     0
  0
APPID
  5
2FD
330
9
100
AcDbSymbolTableRecord
100
AcDbRegAppTableRecord
  2
GradientColor1ACI
 70
     0
  0
APPID
  5
2FE
330
9
100
AcDbSymbolTableRecord
100
AcDbRegAppTableRecord
  2
GradientColor2ACI
 70
     0
  0
APPID
  5
925
330
9
100
AcDbSymbolTableRecord
100
AcDbRegAppTableRecord
  2
ACAD_EXEMPT_FROM_CAD_STANDARDS
 70
     0
  0
APPID
  5
9C1
330
9
100
AcDbSymbolTableRecord
100
AcDbRegAppTableRecord
  2
AcadAnnoMonitorAlertIconDisabled
 70
     0
  0
ENDTAB
  0
TABLE
  2
DIMSTYLE
  5
A
330
0
100
AcDbSymbolTable
 70
     4
100
AcDbDimStyleTable
 71
     2
340
27
340
137
  0
DIMSTYLE
105
1B0
102
{ACAD_REACTORS
330
7B9
330
7BA
330
685
330
686
330
6CE
330
608
330
6F5
330
70D
330
A40
330
BBB
102
}
330
A
100
AcDbSymbolTableRecord
100
AcDbDimStyleTableRecord
  2
Standard
 70
     0
340
11
  0
DIMSTYLE
105
137
330
A
100
AcDbSymbolTableRecord
100
AcDbDimStyleTableRecord
  2
Annotative
 70
     0
 40
0.0
 41
2.5
 42
0.625
 43
3.75
 44
1.25
 73
     0
 74
     0
 77
     1
 78
     8
140
2.5
141
2.5
143
0.03937007874016
147
0.625
171
     3
172
     1
271
     2
272
     2
274
     3
278
    44
283
     0
284
     8
340
11
1001
AcadAnnotative
1000
AnnotativeData
1002
{
1070
     1
1070
     1
1002
}
1001
ACAD_DSTYLE_DIMJAG
1070
   388
1040
1.5
1001
ACAD_DSTYLE_DIMTALN
1070
   392
1070
     0
  0
DIMSTYLE
105
27
330
A
100
AcDbSymbolTableRecord
100
AcDbDimStyleTableRecord
  2
ISO-25
 70
     0
 41
2.5
 42
0.625
 43
3.75
 44
1.25
 73
     0
 74
     0
 77
     1
 78
     8
140
2.5
141
2.5
143
0.03937007874016
147
0.625
171
     3
172
     1
271
     2
272
     2
274
     3
278
    44
283
     0
284
     8
340
11
  0
ENDTAB
  0
TABLE
  2
BLOCK_RECORD
  5
1
330
0
100
AcDbSymbolTable
 70
    12
  0
BLOCK_RECORD
  5
1F
102
{ACAD_XDICTIONARY
360
1CE
102
}
330
1
100
AcDbSymbolTableRecord
100
AcDbBlockTableRecord
  2
*Model_Space
340
22
 70
     0
280
     1
281
     0
  0
BLOCK_RECORD
  5
D2
330
1
100
AcDbSymbolTableRecord
100
AcDbBlockTableRecord
  2
*Paper_Space
340
D3
 70
     0
280
     1
281
     0
  0
BLOCK_RECORD
  5
D6
330
1
100
AcDbSymbolTableRecord
100
AcDbBlockTableRecord
  2
*Paper_Space0
340
D7
 70
     0
280
     1
281
     0
  0
BLOCK_RECORD
  5
873
330
1
100
AcDbSymbolTableRecord
100
AcDbBlockTableRecord
  2
*D1
340
0
 70
     0
280
     1
281
     0
  0
BLOCK_RECORD
  5
880
330
1
100
AcDbSymbolTableRecord
100
AcDbBlockTableRecord
  2
*D2
340
0
 70
     0
280
     1
281
     0
  0
BLOCK_RECORD
  5
88D
330
1
100
AcDbSymbolTableRecord
100
AcDbBlockTableRecord
  2
*D3
340
0
 70
     0
280
     1
281
     0
  0
BLOCK_RECORD
  5
89A
330
1
100
AcDbSymbolTableRecord
100
AcDbBlockTableRecord
  2
*D4
340
0
 70
     0
280
     1
281
     0
  0
BLOCK_RECORD
  5
8A7
330
1
100
AcDbSymbolTableRecord
100
AcDbBlockTableRecord
  2
*D5
340
0
 70
     0
280
     1
281
     0
  0
BLOCK_RECORD
  5
8B3
330
1
100
AcDbSymbolTableRecord
100
AcDbBlockTableRecord
  2
*D6
340
0
 70
     0
280
     1
281
     0
  0
BLOCK_RECORD
  5
8BF
330
1
100
AcDbSymbolTableRecord
100
AcDbBlockTableRecord
  2
*D7
340
0
 70
     0
280
     1
281
     0
  0
BLOCK_RECORD
  5
8CC
330
1
100
AcDbSymbolTableRecord
100
AcDbBlockTableRecord
  2
*D8
340
0
 70
     0
280
     1
281
     0
  0
BLOCK_RECORD
  5
A41
330
1
100
AcDbSymbolTableRecord
100
AcDbBlockTableRecord
  2
*D9
340
0
 70
     0
280
     1
281
     0
  0
BLOCK_RECORD
  5
BBC
330
1
100
AcDbSymbolTableRecord
100
AcDbBlockTableRecord
  2
*D10
340
0
 70
     0
280
     1
281
     0
  0
ENDTAB
  0
ENDSEC
  0
SECTION
  2
BLOCKS
  0
BLOCK
  5
20
330
1F
100
AcDbEntity
  8
0
100
AcDbBlockBegin
  2
*Model_Space
 70
     0
 10
0.0
 20
0.0
 30
0.0
  3
*Model_Space
  1

  0
ENDBLK
  5
21
330
1F
100
AcDbEntity
  8
0
100
AcDbBlockEnd
  0
BLOCK
  5
D4
330
D2
100
AcDbEntity
 67
     1
  8
0
100
AcDbBlockBegin
  2
*Paper_Space
 70
     0
 10
0.0
 20
0.0
 30
0.0
  3
*Paper_Space
  1

  0
ENDBLK
  5
D5
330
D2
100
AcDbEntity
 67
     1
  8
0
100
AcDbBlockEnd
  0
BLOCK
  5
D8
330
D6
100
AcDbEntity
 67
     1
  8
0
100
AcDbBlockBegin
  2
*Paper_Space0
 70
     0
 10
0.0
 20
0.0
 30
0.0
  3
*Paper_Space0
  1

  0
ENDBLK
  5
D9
330
D6
100
AcDbEntity
 67
     1
  8
0
100
AcDbBlockEnd
  0
BLOCK
  5
874
330
873
100
AcDbEntity
  8
0
100
AcDbBlockBegin
  2
*D1
 70
     1
 10
0.0
 20
0.0
 30
0.0
  3
*D1
  1

  0
LINE
  5
B4A
330
873
100
AcDbEntity
  8
寸法
  6
Continuous
 62
     0
440
 16777216
370
    -2
100
AcDbLine
 10
519.6882945093152
 20
457.3262716002829
 30
0.0
 11
519.6882945093152
 21
453.5060204772785
 31
0.0
  0
LINE
  5
B4B
330
873
100
AcDbEntity
  8
寸法
  6
Continuous
 62
     0
440
 16777216
370
    -2
100
AcDbLine
 10
524.2228879404243
 20
457.3701236050639
 30
0.0
 11
524.2228879404243
 21
453.5060204772785
 31
0.0
  0
LINE
  5
B4C
330
873
100
AcDbEntity
  8
寸法
  6
Continuous
 62
     0
440
 16777216
370
    -2
100
AcDbLine
 10
517.6882945093153
 20
453.6860204772785
 30
0.0
 11
515.6882945093152
 21
453.6860204772785
 31
0.0
  0
LINE
  5
B4D
330
873
100
AcDbEntity
  8
寸法
  6
Continuous
 62
     0
440
 16777216
370
    -2
100
AcDbLine
 10
526.2228879404243
 20
453.6860204772785
 30
0.0
 11
528.2228879404243
 21
453.6860204772785
 31
0.0
  0
MTEXT
  5
B4E
330
873
100
AcDbEntity
  8
寸法
  6
Continuous
 62
     0
440
 16777216
100
AcDbMText
 10
522.6424443061614
 20
451.4023904098391
 30
0.0
 40
2.0
 41
0.0
 46
0.0
 71
     5
 72
     1
  1
\A1;２５以上
 73
     1
 44
1.0
  0
SOLID
  5
B4F
330
873
100
AcDbEntity
  8
寸法
  6
Continuous
 62
     0
440
 16777216
100
AcDbTrace
 10
517.6882945093153
 20
454.0193538106118
 30
0.0
 11
517.6882945093153
 21
453.3526871439452
 31
0.0
 12
519.6882945093152
 22
453.6860204772785
 32
0.0
 13
519.6882945093152
 23
453.6860204772785
 33
0.0
  0
SOLID
  5
B50
330
873
100
AcDbEntity
  8
寸法
  6
Continuous
 62
     0
440
 16777216
100
AcDbTrace
 10
526.2228879404243
 20
454.0193538106118
 30
0.0
 11
526.2228879404243
 21
453.3526871439452
 31
0.0
 12
524.2228879404243
 22
453.6860204772785
 32
0.0
 13
524.2228879404243
 23
453.6860204772785
 33
0.0
  0
POINT
  5
B51
330
873
100
AcDbEntity
  8
Defpoints
  6
Continuous
 62
     0
440
 16777216
100
AcDbPoint
 10
519.6882945093152
 20
457.3262716002829
 30
0.0
  0
POINT
  5
B52
330
873
100
AcDbEntity
  8
Defpoints
  6
Continuous
 62
     0
440
 16777216
100
AcDbPoint
 10
524.2228879404243
 20
457.3701236050639
 30
0.0
  0
POINT
  5
B53
330
873
100
AcDbEntity
  8
Defpoints
  6
Continuous
 62
     0
440
 16777216
100
AcDbPoint
 10
524.2228879404243
 20
453.6860204772785
 30
0.0
  0
ENDBLK
  5
875
330
873
100
AcDbEntity
  8
0
100
AcDbBlockEnd
  0
BLOCK
  5
881
330
880
100
AcDbEntity
  8
0
100
AcDbBlockBegin
  2
*D2
 70
     1
 10
0.0
 20
0.0
 30
0.0
  3
*D2
  1

  0
LINE
  5
B40
330
880
100
AcDbEntity
  8
寸法
  6
Continuous
 62
     0
440
 16777216
370
    -2
100
AcDbLine
 10
526.222135347776
 20
459.3081029558282
 30
0.0
 11
530.0423864707839
 21
459.3081029558282
 31
0.0
  0
LINE
  5
B41
330
880
100
AcDbEntity
  8
寸法
  6
Continuous
 62
     0
440
 16777216
370
    -2
100
AcDbLine
 10
526.178283342995
 20
463.8426963869373
 30
0.0
 11
530.0423864707839
 21
463.8426963869373
 31
0.0
  0
LINE
  5
B42
330
880
100
AcDbEntity
  8
寸法
  6
Continuous
 62
     0
440
 16777216
370
    -2
100
AcDbLine
 10
529.862386470784
 20
457.3081029558282
 30
0.0
 11
529.862386470784
 21
455.3081029558282
 31
0.0
  0
LINE
  5
B43
330
880
100
AcDbEntity
  8
寸法
  6
Continuous
 62
     0
440
 16777216
370
    -2
100
AcDbLine
 10
529.862386470784
 20
465.8426963869373
 30
0.0
 11
529.862386470784
 21
467.8426963869373
 31
0.0
  0
MTEXT
  5
B44
330
880
100
AcDbEntity
  8
寸法
  6
Continuous
 62
     0
440
 16777216
100
AcDbMText
 10
532.1460165382196
 20
461.5344181024416
 30
0.0
 40
2.0
 41
0.0
 46
0.0
 71
     5
 72
     1
  1
\A1;２５以上
 11
0.0000000000000001
 21
1.0
 31
0.0
 73
     1
 44
1.0
  0
SOLID
  5
B45
330
880
100
AcDbEntity
  8
寸法
  6
Continuous
 62
     0
440
 16777216
100
AcDbTrace
 10
529.5290531374506
 20
457.3081029558282
 30
0.0
 11
530.1957198041174
 21
457.3081029558282
 31
0.0
 12
529.862386470784
 22
459.3081029558282
 32
0.0
 13
529.862386470784
 23
459.3081029558282
 33
0.0
  0
SOLID
  5
B46
330
880
100
AcDbEntity
  8
寸法
  6
Continuous
 62
     0
440
 16777216
100
AcDbTrace
 10
529.5290531374506
 20
465.8426963869373
 30
0.0
 11
530.1957198041174
 21
465.8426963869373
 31
0.0
 12
529.862386470784
 22
463.8426963869373
 32
0.0
 13
529.862386470784
 23
463.8426963869373
 33
0.0
  0
POINT
  5
B47
330
880
100
AcDbEntity
  8
Defpoints
  6
Continuous
 62
     0
440
 16777216
100
AcDbPoint
 10
526.222135347776
 20
459.3081029558282
 30
0.0
  0
POINT
  5
B48
330
880
100
AcDbEntity
  8
Defpoints
  6
Continuous
 62
     0
440
 16777216
100
AcDbPoint
 10
526.178283342995
 20
463.8426963869373
 30
0.0
  0
POINT
  5
B49
330
880
100
AcDbEntity
  8
Defpoints
  6
Continuous
 62
     0
440
 16777216
100
AcDbPoint
 10
529.862386470784
 20
463.8426963869373
 30
0.0
  0
ENDBLK
  5
882
330
880
100
AcDbEntity
  8
0
100
AcDbBlockEnd
  0
BLOCK
  5
88E
330
88D
100
AcDbEntity
  8
0
100
AcDbBlockBegin
  2
*D3
 70
     1
 10
0.0
 20
0.0
 30
0.0
  3
*D3
  1

  0
LINE
  5
B36
330
88D
100
AcDbEntity
  8
寸法
  6
Continuous
 62
     0
440
 16777216
370
    -2
100
AcDbLine
 10
528.2990548008574
 20
417.0048319044656
 30
0.0
 11
533.7159443181463
 21
417.0048319044656
 31
0.0
  0
LINE
  5
B37
330
88D
100
AcDbEntity
  8
寸法
  6
Continuous
 62
     0
440
 16777216
370
    -2
100
AcDbLine
 10
516.3991854517564
 20
422.3799673095958
 30
0.0
 11
533.7159443181463
 21
422.3799673095958
 31
0.0
  0
LINE
  5
B38
330
88D
100
AcDbEntity
  8
寸法
  6
Continuous
 62
     0
440
 16777216
370
    -2
100
AcDbLine
 10
533.5359443181464
 20
415.0048319044656
 30
0.0
 11
533.5359443181464
 21
413.0048319044655
 31
0.0
  0
LINE
  5
B39
330
88D
100
AcDbEntity
  8
寸法
  6
Continuous
 62
     0
440
 16777216
370
    -2
100
AcDbLine
 10
533.5359443181464
 20
424.3799673095957
 30
0.0
 11
533.5359443181464
 21
426.3799673095958
 31
0.0
  0
MTEXT
  5
B3A
330
88D
100
AcDbEntity
  8
寸法
  6
Continuous
 62
     0
440
 16777216
100
AcDbMText
 10
537.8700995779131
 20
420.246588896297
 30
0.0
 40
2.0
 41
0.0
 46
0.0
 71
     5
 72
     1
  1
\A1;耐火パテ\P５０以上
 11
0.0000000000000001
 21
1.0
 31
0.0
 73
     1
 44
1.0
  0
SOLID
  5
B3B
330
88D
100
AcDbEntity
  8
寸法
  6
Continuous
 62
     0
440
 16777216
100
AcDbTrace
 10
533.202610984813
 20
415.0048319044656
 30
0.0
 11
533.8692776514798
 21
415.0048319044656
 31
0.0
 12
533.5359443181464
 22
417.0048319044656
 32
0.0
 13
533.5359443181464
 23
417.0048319044656
 33
0.0
  0
SOLID
  5
B3C
330
88D
100
AcDbEntity
  8
寸法
  6
Continuous
 62
     0
440
 16777216
100
AcDbTrace
 10
533.202610984813
 20
424.3799673095957
 30
0.0
 11
533.8692776514798
 21
424.3799673095957
 31
0.0
 12
533.5359443181464
 22
422.3799673095958
 32
0.0
 13
533.5359443181464
 23
422.3799673095958
 33
0.0
  0
POINT
  5
B3D
330
88D
100
AcDbEntity
  8
Defpoints
  6
Continuous
 62
     0
440
 16777216
100
AcDbPoint
 10
528.2990548008574
 20
417.0048319044656
 30
0.0
  0
POINT
  5
B3E
330
88D
100
AcDbEntity
  8
Defpoints
  6
Continuous
 62
     0
440
 16777216
100
AcDbPoint
 10
516.3991854517564
 20
422.3799673095958
 30
0.0
  0
POINT
  5
B3F
330
88D
100
AcDbEntity
  8
Defpoints
  6
Continuous
 62
     0
440
 16777216
100
AcDbPoint
 10
533.5359443181464
 20
422.3799673095958
 30
0.0
  0
ENDBLK
  5
88F
330
88D
100
AcDbEntity
  8
0
100
AcDbBlockEnd
  0
BLOCK
  5
89B
330
89A
100
AcDbEntity
  8
0
100
AcDbBlockBegin
  2
*D4
 70
     1
 10
0.0
 20
0.0
 30
0.0
  3
*D4
  1

  0
LINE
  5
B54
330
89A
100
AcDbEntity
  8
寸法
  6
Continuous
 62
     0
440
 16777216
370
    -2
100
AcDbLine
 10
528.2990548008572
 20
385.8010080161509
 30
0.0
 11
533.7159443181469
 21
385.8010080161509
 31
0.0
  0
LINE
  5
B55
330
89A
100
AcDbEntity
  8
寸法
  6
Continuous
 62
     0
440
 16777216
370
    -2
100
AcDbLine
 10
528.3101755625762
 20
389.4920323052453
 30
0.0
 11
533.7159443181469
 21
389.4920323052453
 31
0.0
  0
LINE
  5
B56
330
89A
100
AcDbEntity
  8
寸法
  6
Continuous
 62
     0
440
 16777216
370
    -2
100
AcDbLine
 10
533.5359443181468
 20
383.8010080161509
 30
0.0
 11
533.5359443181468
 21
381.8010080161509
 31
0.0
  0
LINE
  5
B57
330
89A
100
AcDbEntity
  8
寸法
  6
Continuous
 62
     0
440
 16777216
370
    -2
100
AcDbLine
 10
533.5359443181468
 20
391.4920323052453
 30
0.0
 11
533.5359443181468
 21
393.4920323052453
 31
0.0
  0
MTEXT
  5
B58
330
89A
100
AcDbEntity
  8
寸法
  6
Continuous
 62
     0
440
 16777216
100
AcDbMText
 10
537.1955696596519
 20
388.6469541086366
 30
0.0
 40
2.0
 41
0.0
 46
0.0
 71
     5
 72
     1
  1
\A1;耐火パテ\P３０以上
 11
0.0000000000000001
 21
1.0
 31
0.0
 73
     1
 44
1.0
  0
SOLID
  5
B59
330
89A
100
AcDbEntity
  8
寸法
  6
Continuous
 62
     0
440
 16777216
100
AcDbTrace
 10
533.2026109848135
 20
383.8010080161509
 30
0.0
 11
533.8692776514802
 21
383.8010080161509
 31
0.0
 12
533.5359443181468
 22
385.8010080161509
 32
0.0
 13
533.5359443181468
 23
385.8010080161509
 33
0.0
  0
SOLID
  5
B5A
330
89A
100
AcDbEntity
  8
寸法
  6
Continuous
 62
     0
440
 16777216
100
AcDbTrace
 10
533.2026109848135
 20
391.4920323052453
 30
0.0
 11
533.8692776514802
 21
391.4920323052453
 31
0.0
 12
533.5359443181468
 22
389.4920323052453
 32
0.0
 13
533.5359443181468
 23
389.4920323052453
 33
0.0
  0
POINT
  5
B5B
330
89A
100
AcDbEntity
  8
Defpoints
  6
Continuous
 62
     0
440
 16777216
100
AcDbPoint
 10
528.2990548008572
 20
385.8010080161509
 30
0.0
  0
POINT
  5
B5C
330
89A
100
AcDbEntity
  8
Defpoints
  6
Continuous
 62
     0
440
 16777216
100
AcDbPoint
 10
528.3101755625762
 20
389.4920323052453
 30
0.0
  0
POINT
  5
B5D
330
89A
100
AcDbEntity
  8
Defpoints
  6
Continuous
 62
     0
440
 16777216
100
AcDbPoint
 10
533.5359443181468
 20
389.4920323052453
 30
0.0
  0
ENDBLK
  5
89C
330
89A
100
AcDbEntity
  8
0
100
AcDbBlockEnd
  0
BLOCK
  5
8A8
330
8A7
100
AcDbEntity
  8
0
100
AcDbBlockBegin
  2
*D5
 70
     1
 10
0.0
 20
0.0
 30
0.0
  3
*D5
  1

  0
LINE
  5
9CB
330
8A7
100
AcDbEntity
  8
寸法
  6
Continuous
 62
     0
440
 16777216
370
    -2
100
AcDbLine
 10
559.8798637413988
 20
382.9692554838472
 30
0.0
 11
565.0635123226687
 21
382.9692554838472
 31
0.0
  0
LINE
  5
9CC
330
8A7
100
AcDbEntity
  8
寸法
  6
Continuous
 62
     0
440
 16777216
370
    -2
100
AcDbLine
 10
528.7751302024914
 20
414.3643862364207
 30
0.0
 11
565.0635123226687
 21
414.3643862364207
 31
0.0
  0
LINE
  5
9CD
330
8A7
100
AcDbEntity
  8
寸法
  6
Continuous
 62
     0
440
 16777216
370
    -2
100
AcDbLine
 10
564.8835123226688
 20
384.9692554838473
 30
0.0
 11
564.8835123226688
 21
412.3643862364207
 31
0.0
  0
MTEXT
  5
9CE
330
8A7
100
AcDbEntity
  8
寸法
  6
Continuous
 62
     0
440
 16777216
100
AcDbMText
 10
570.1932703017701
 20
398.4229443636743
 30
0.0
 40
3.0
 41
0.0
 46
0.0
 71
     5
 72
     1
  1
\A1;{\fMS PGothic|b0|i0|c128|p50;鋼製スリーブ高さ\P２００以上}
 11
0.0000000000000001
 21
1.0
 31
0.0
 73
     1
 44
1.0
  0
SOLID
  5
9CF
330
8A7
100
AcDbEntity
  8
寸法
  6
Continuous
 62
     0
440
 16777216
100
AcDbTrace
 10
564.5501789893354
 20
384.9692554838473
 30
0.0
 11
565.2168456560022
 21
384.9692554838473
 31
0.0
 12
564.8835123226688
 22
382.9692554838472
 32
0.0
 13
564.8835123226688
 23
382.9692554838472
 33
0.0
  0
SOLID
  5
9D0
330
8A7
100
AcDbEntity
  8
寸法
  6
Continuous
 62
     0
440
 16777216
100
AcDbTrace
 10
564.5501789893354
 20
412.3643862364207
 30
0.0
 11
565.2168456560022
 21
412.3643862364207
 31
0.0
 12
564.8835123226688
 22
414.3643862364207
 32
0.0
 13
564.8835123226688
 23
414.3643862364207
 33
0.0
  0
POINT
  5
9D1
330
8A7
100
AcDbEntity
  8
Defpoints
  6
Continuous
 62
     0
440
 16777216
100
AcDbPoint
 10
559.8798637413988
 20
382.9692554838472
 30
0.0
  0
POINT
  5
9D2
330
8A7
100
AcDbEntity
  8
Defpoints
  6
Continuous
 62
     0
440
 16777216
100
AcDbPoint
 10
528.7751302024914
 20
414.3643862364207
 30
0.0
  0
POINT
  5
9D3
330
8A7
100
AcDbEntity
  8
Defpoints
  6
Continuous
 62
     0
440
 16777216
100
AcDbPoint
 10
564.8835123226688
 20
414.3643862364207
 30
0.0
  0
ENDBLK
  5
8A9
330
8A7
100
AcDbEntity
  8
0
100
AcDbBlockEnd
  0
BLOCK
  5
8B4
330
8B3
100
AcDbEntity
  8
0
100
AcDbBlockBegin
  2
*D6
 70
     1
 10
0.0
 20
0.0
 30
0.0
  3
*D6
  1

  0
LINE
  5
A95
330
8B3
100
AcDbEntity
  8
寸法
  6
Continuous
 62
     0
440
 16777216
370
    -2
100
AcDbLine
 10
549.7298756245282
 20
383.1605623481061
 30
0.0
 11
553.895239675441
 21
383.1605623481061
 31
0.0
  0
LINE
  5
A96
330
8B3
100
AcDbEntity
  8
寸法
  6
Continuous
 62
     0
440
 16777216
370
    -2
100
AcDbLine
 10
548.8901829327371
 20
402.9131185106749
 30
0.0
 11
553.895239675441
 21
402.9131185106749
 31
0.0
  0
LINE
  5
A97
330
8B3
100
AcDbEntity
  8
寸法
  6
Continuous
 62
     0
440
 16777216
370
    -2
100
AcDbLine
 10
553.7152396754411
 20
385.1605623481061
 30
0.0
 11
553.7152396754411
 21
400.9131185106749
 31
0.0
  0
MTEXT
  5
A98
330
8B3
100
AcDbEntity
  8
寸法
  6
Continuous
 62
     0
440
 16777216
100
AcDbMText
 10
557.3977784188295
 20
393.0368404293903
 30
0.0
 40
3.0
 41
0.0
 46
0.0
 71
     5
 72
     1
  1
\A1;床厚１００以上
 11
0.0000000000000001
 21
1.0
 31
0.0
 73
     1
 44
1.0
  0
SOLID
  5
A99
330
8B3
100
AcDbEntity
  8
寸法
  6
Continuous
 62
     0
440
 16777216
100
AcDbTrace
 10
553.3819063421077
 20
385.1605623481061
 30
0.0
 11
554.0485730087745
 21
385.1605623481061
 31
0.0
 12
553.7152396754411
 22
383.1605623481061
 32
0.0
 13
553.7152396754411
 23
383.1605623481061
 33
0.0
  0
SOLID
  5
A9A
330
8B3
100
AcDbEntity
  8
寸法
  6
Continuous
 62
     0
440
 16777216
100
AcDbTrace
 10
553.3819063421077
 20
400.9131185106749
 30
0.0
 11
554.0485730087745
 21
400.9131185106749
 31
0.0
 12
553.7152396754411
 22
402.9131185106749
 32
0.0
 13
553.7152396754411
 23
402.9131185106749
 33
0.0
  0
POINT
  5
A9B
330
8B3
100
AcDbEntity
  8
Defpoints
  6
Continuous
 62
     0
440
 16777216
100
AcDbPoint
 10
549.7298756245282
 20
383.1605623481061
 30
0.0
  0
POINT
  5
A9C
330
8B3
100
AcDbEntity
  8
Defpoints
  6
Continuous
 62
     0
440
 16777216
100
AcDbPoint
 10
548.8901829327371
 20
402.9131185106749
 30
0.0
  0
POINT
  5
A9D
330
8B3
100
AcDbEntity
  8
Defpoints
  6
Continuous
 62
     0
440
 16777216
100
AcDbPoint
 10
553.7152396754411
 20
402.9131185106749
 30
0.0
  0
ENDBLK
  5
8B5
330
8B3
100
AcDbEntity
  8
0
100
AcDbBlockEnd
  0
BLOCK
  5
8C0
330
8BF
100
AcDbEntity
  8
0
100
AcDbBlockBegin
  2
*D7
 70
     1
 10
0.0
 20
0.0
 30
0.0
  3
*D7
  1

  0
LINE
  5
B5E
330
8BF
100
AcDbEntity
  8
寸法
  6
Continuous
 62
     0
440
 16777216
370
    -2
100
AcDbLine
 10
521.950169301645
 20
412.3825548808754
 30
0.0
 11
521.950169301645
 21
408.5623037578709
 31
0.0
  0
LINE
  5
B5F
330
8BF
100
AcDbEntity
  8
寸法
  6
Continuous
 62
     0
440
 16777216
370
    -2
100
AcDbLine
 10
526.4847627327541
 20
412.4264068856564
 30
0.0
 11
526.4847627327541
 21
408.5623037578709
 31
0.0
  0
LINE
  5
B60
330
8BF
100
AcDbEntity
  8
寸法
  6
Continuous
 62
     0
440
 16777216
370
    -2
100
AcDbLine
 10
519.950169301645
 20
408.742303757871
 30
0.0
 11
517.950169301645
 21
408.742303757871
 31
0.0
  0
LINE
  5
B61
330
8BF
100
AcDbEntity
  8
寸法
  6
Continuous
 62
     0
440
 16777216
370
    -2
100
AcDbLine
 10
528.4847627327541
 20
408.742303757871
 30
0.0
 11
530.4847627327541
 21
408.742303757871
 31
0.0
  0
MTEXT
  5
B62
330
8BF
100
AcDbEntity
  8
寸法
  6
Continuous
 62
     0
440
 16777216
100
AcDbMText
 10
527.7372964352625
 20
406.4586736904316
 30
0.0
 40
2.0
 41
0.0
 46
0.0
 71
     5
 72
     1
  1
\A1;２５以上
 73
     1
 44
1.0
  0
SOLID
  5
B63
330
8BF
100
AcDbEntity
  8
寸法
  6
Continuous
 62
     0
440
 16777216
100
AcDbTrace
 10
519.950169301645
 20
409.0756370912043
 30
0.0
 11
519.950169301645
 21
408.4089704245377
 31
0.0
 12
521.950169301645
 22
408.742303757871
 32
0.0
 13
521.950169301645
 23
408.742303757871
 33
0.0
  0
SOLID
  5
B64
330
8BF
100
AcDbEntity
  8
寸法
  6
Continuous
 62
     0
440
 16777216
100
AcDbTrace
 10
528.4847627327541
 20
409.0756370912043
 30
0.0
 11
528.4847627327541
 21
408.4089704245377
 31
0.0
 12
526.4847627327541
 22
408.742303757871
 32
0.0
 13
526.4847627327541
 23
408.742303757871
 33
0.0
  0
POINT
  5
B65
330
8BF
100
AcDbEntity
  8
Defpoints
  6
Continuous
 62
     0
440
 16777216
100
AcDbPoint
 10
521.950169301645
 20
412.3825548808754
 30
0.0
  0
POINT
  5
B66
330
8BF
100
AcDbEntity
  8
Defpoints
  6
Continuous
 62
     0
440
 16777216
100
AcDbPoint
 10
526.4847627327541
 20
412.4264068856564
 30
0.0
  0
POINT
  5
B67
330
8BF
100
AcDbEntity
  8
Defpoints
  6
Continuous
 62
     0
440
 16777216
100
AcDbPoint
 10
526.4847627327541
 20
408.742303757871
 30
0.0
  0
ENDBLK
  5
8C1
330
8BF
100
AcDbEntity
  8
0
100
AcDbBlockEnd
  0
BLOCK
  5
8CD
330
8CC
100
AcDbEntity
  8
0
100
AcDbBlockBegin
  2
*D8
 70
     1
 10
0.0
 20
0.0
 30
0.0
  3
*D8
  1

  0
LINE
  5
B71
330
8CC
100
AcDbEntity
  8
寸法
  6
Continuous
 62
     0
440
 16777216
370
    -2
100
AcDbLine
 10
594.6221347657877
 20
452.7258112212066
 30
0.0
 11
608.9617633649895
 21
452.7258112212066
 31
0.0
  0
LINE
  5
B72
330
8CC
100
AcDbEntity
  8
寸法
  6
Continuous
 62
     0
440
 16777216
370
    -2
100
AcDbLine
 10
594.5110868395233
 20
462.0233083858116
 30
0.0
 11
608.9617633649895
 21
462.0233083858116
 31
0.0
  0
LINE
  5
B73
330
8CC
100
AcDbEntity
  8
寸法
  6
Continuous
 62
     0
440
 16777216
370
    -2
100
AcDbLine
 10
608.7817633649896
 20
454.7258112212065
 30
0.0
 11
608.7817633649896
 21
460.0233083858117
 31
0.0
  0
MTEXT
  5
B74
330
8CC
100
AcDbEntity
  8
寸法
  6
Continuous
 62
     0
440
 16777216
100
AcDbMText
 10
611.1139415274656
 20
456.8924262589795
 30
0.0
 40
2.0
 41
0.0
 46
0.0
 71
     5
 72
     1
  1
\A1;５０以上
 11
0.0000000000000001
 21
1.0
 31
0.0
 73
     1
 44
1.0
  0
SOLID
  5
B75
330
8CC
100
AcDbEntity
  8
寸法
  6
Continuous
 62
     0
440
 16777216
100
AcDbTrace
 10
608.4484300316562
 20
454.7258112212065
 30
0.0
 11
609.115096698323
 21
454.7258112212065
 31
0.0
 12
608.7817633649896
 22
452.7258112212066
 32
0.0
 13
608.7817633649896
 23
452.7258112212066
 33
0.0
  0
SOLID
  5
B76
330
8CC
100
AcDbEntity
  8
寸法
  6
Continuous
 62
     0
440
 16777216
100
AcDbTrace
 10
608.4484300316562
 20
460.0233083858117
 30
0.0
 11
609.115096698323
 21
460.0233083858117
 31
0.0
 12
608.7817633649896
 22
462.0233083858116
 32
0.0
 13
608.7817633649896
 23
462.0233083858116
 33
0.0
  0
POINT
  5
B77
330
8CC
100
AcDbEntity
  8
Defpoints
  6
Continuous
 62
     0
440
 16777216
100
AcDbPoint
 10
594.6221347657877
 20
452.7258112212066
 30
0.0
  0
POINT
  5
B78
330
8CC
100
AcDbEntity
  8
Defpoints
  6
Continuous
 62
     0
440
 16777216
100
AcDbPoint
 10
594.5110868395233
 20
462.0233083858116
 30
0.0
  0
POINT
  5
B79
330
8CC
100
AcDbEntity
  8
Defpoints
  6
Continuous
 62
     0
440
 16777216
100
AcDbPoint
 10
608.7817633649896
 20
462.0233083858116
 30
0.0
  0
ENDBLK
  5
8CE
330
8CC
100
AcDbEntity
  8
0
100
AcDbBlockEnd
  0
BLOCK
  5
A42
330
A41
100
AcDbEntity
  8
0
100
AcDbBlockBegin
  2
*D9
 70
     1
 10
0.0
 20
0.0
 30
0.0
  3
*D9
  1

  0
LINE
  5
B68
330
A41
100
AcDbEntity
  8
寸法
  6
Continuous
 62
     0
440
 16777216
370
    -2
100
AcDbLine
 10
605.6796027854812
 20
443.6798698017021
 30
0.0
 11
608.9617633649904
 21
443.6798698017021
 31
0.0
  0
LINE
  5
B69
330
A41
100
AcDbEntity
  8
寸法
  6
Continuous
 62
     0
440
 16777216
370
    -2
100
AcDbLine
 10
594.6221347657877
 20
452.7258112212066
 30
0.0
 11
608.9617633649904
 21
452.7258112212066
 31
0.0
  0
LINE
  5
B6A
330
A41
100
AcDbEntity
  8
寸法
  6
Continuous
 62
     0
440
 16777216
370
    -2
100
AcDbLine
 10
608.7817633649905
 20
445.6798698017021
 30
0.0
 11
608.7817633649905
 21
450.7258112212065
 31
0.0
  0
MTEXT
  5
B6B
330
A41
100
AcDbEntity
  8
寸法
  6
Continuous
 62
     0
440
 16777216
100
AcDbMText
 10
611.1139415274656
 20
446.7725703967612
 30
0.0
 40
2.0
 41
0.0
 46
0.0
 71
     5
 72
     1
  1
\A1;５０以上
 11
0.0000000000000001
 21
1.0
 31
0.0
 73
     1
 44
1.0
  0
SOLID
  5
B6C
330
A41
100
AcDbEntity
  8
寸法
  6
Continuous
 62
     0
440
 16777216
100
AcDbTrace
 10
608.4484300316571
 20
445.6798698017021
 30
0.0
 11
609.1150966983239
 21
445.6798698017021
 31
0.0
 12
608.7817633649905
 22
443.6798698017021
 32
0.0
 13
608.7817633649905
 23
443.6798698017021
 33
0.0
  0
SOLID
  5
B6D
330
A41
100
AcDbEntity
  8
寸法
  6
Continuous
 62
     0
440
 16777216
100
AcDbTrace
 10
608.4484300316571
 20
450.7258112212065
 30
0.0
 11
609.1150966983239
 21
450.7258112212065
 31
0.0
 12
608.7817633649905
 22
452.7258112212066
 32
0.0
 13
608.7817633649905
 23
452.7258112212066
 33
0.0
  0
POINT
  5
B6E
330
A41
100
AcDbEntity
  8
Defpoints
  6
Continuous
 62
     0
440
 16777216
100
AcDbPoint
 10
605.6796027854812
 20
443.6798698017021
 30
0.0
  0
POINT
  5
B6F
330
A41
100
AcDbEntity
  8
Defpoints
  6
Continuous
 62
     0
440
 16777216
100
AcDbPoint
 10
594.6221347657877
 20
452.7258112212066
 30
0.0
  0
POINT
  5
B70
330
A41
100
AcDbEntity
  8
Defpoints
  6
Continuous
 62
     0
440
 16777216
100
AcDbPoint
 10
608.7817633649905
 20
452.7258112212066
 30
0.0
  0
ENDBLK
  5
A43
330
A41
100
AcDbEntity
  8
0
100
AcDbBlockEnd
  0
BLOCK
  5
BBD
330
BBC
100
AcDbEntity
  8
0
100
AcDbBlockBegin
  2
*D10
 70
     1
 10
0.0
 20
0.0
 30
0.0
  3
*D10
  1

  0
LINE
  5
C72
330
BBC
100
AcDbEntity
  8
寸法
  6
Continuous
 62
     0
440
 16777216
370
    -2
100
AcDbLine
 10
590.5748591684753
 20
465.061267799782
 30
0.0
 11
590.5748591684753
 21
472.680205450663
 31
0.0
  0
LINE
  5
C73
330
BBC
100
AcDbEntity
  8
寸法
  6
Continuous
 62
     0
440
 16777216
370
    -2
100
AcDbLine
 10
592.7449821231387
 20
465.0831938021725
 30
0.0
 11
592.7449821231387
 21
472.680205450663
 31
0.0
  0
LINE
  5
C74
330
BBC
100
AcDbEntity
  8
寸法
  6
Continuous
 62
     0
440
 16777216
370
    -2
100
AcDbLine
 10
588.5748591684753
 20
472.500205450663
 30
0.0
 11
586.5748591684753
 21
472.500205450663
 31
0.0
  0
LINE
  5
C75
330
BBC
100
AcDbEntity
  8
寸法
  6
Continuous
 62
     0
440
 16777216
370
    -2
100
AcDbLine
 10
594.7449821231388
 20
472.500205450663
 30
0.0
 11
596.7449821231388
 21
472.500205450663
 31
0.0
  0
MTEXT
  5
C76
330
BBC
100
AcDbEntity
  8
寸法
  6
Continuous
 62
     0
440
 16777216
100
AcDbMText
 10
592.9799285000503
 20
474.8362058001323
 30
0.0
 40
2.0
 41
0.0
 46
0.0
 71
     5
 72
     1
  1
\A1;{\fMS PGothic|b0|i0|c128|p50;１０以上}
 73
     1
 44
1.0
  0
SOLID
  5
C77
330
BBC
100
AcDbEntity
  8
寸法
  6
Continuous
 62
     0
440
 16777216
100
AcDbTrace
 10
588.5748591684753
 20
472.8335387839963
 30
0.0
 11
588.5748591684753
 21
472.1668721173297
 31
0.0
 12
590.5748591684753
 22
472.500205450663
 32
0.0
 13
590.5748591684753
 23
472.500205450663
 33
0.0
  0
SOLID
  5
C78
330
BBC
100
AcDbEntity
  8
寸法
  6
Continuous
 62
     0
440
 16777216
100
AcDbTrace
 10
594.7449821231388
 20
472.8335387839963
 30
0.0
 11
594.7449821231388
 21
472.1668721173297
 31
0.0
 12
592.7449821231387
 22
472.500205450663
 32
0.0
 13
592.7449821231387
 23
472.500205450663
 33
0.0
  0
POINT
  5
C79
330
BBC
100
AcDbEntity
  8
Defpoints
  6
Continuous
 62
     0
440
 16777216
100
AcDbPoint
 10
590.5748591684753
 20
465.061267799782
 30
0.0
  0
POINT
  5
C7A
330
BBC
100
AcDbEntity
  8
Defpoints
  6
Continuous
 62
     0
440
 16777216
100
AcDbPoint
 10
592.7449821231387
 20
465.0831938021725
 30
0.0
  0
POINT
  5
C7B
330
BBC
100
AcDbEntity
  8
Defpoints
  6
Continuous
 62
     0
440
 16777216
100
AcDbPoint
 10
592.7449821231387
 20
472.500205450663
 30
0.0
  0
ENDBLK
  5
BBE
330
BBC
100
AcDbEntity
  8
0
100
AcDbBlockEnd
  0
ENDSEC
  0
SECTION
  2
ENTITIES
  0
LINE
  5
5BF
330
1F
100
AcDbEntity
  8
図面枠
  6
Continuous
100
AcDbLine
 10
621.8625650317926
 20
549.1318140159357
 30
0.0
 11
621.8625650317926
 21
252.1318140159358
 31
0.0
  0
LINE
  5
5C0
330
1F
100
AcDbEntity
  8
図面枠
  6
Continuous
100
AcDbLine
 10
411.8625650317926
 20
252.1318140159358
 30
0.0
 11
621.8625650317926
 21
252.1318140159358
 31
0.0
  0
LINE
  5
5C1
330
1F
100
AcDbEntity
  8
図面枠
  6
Continuous
100
AcDbLine
 10
411.8625650317926
 20
549.1318140159357
 30
0.0
 11
411.8625650317926
 21
252.1318140159358
 31
0.0
  0
LINE
  5
5C2
330
1F
100
AcDbEntity
  8
図面枠
  6
Continuous
100
AcDbLine
 10
621.8625650317926
 20
549.1318140159357
 30
0.0
 11
411.8625650317926
 21
549.1318140159357
 31
0.0
  0
LINE
  5
5C3
330
1F
100
AcDbEntity
  8
図面枠
  6
Continuous
100
AcDbLine
 10
621.8625650317926
 20
537.7338054901417
 30
0.0
 11
411.8625650317926
 21
537.7338054901417
 31
0.0
  0
LINE
  5
5C4
330
1F
100
AcDbEntity
  8
図面枠
  6
Continuous
100
AcDbLine
 10
432.9319715991873
 20
549.1318140159357
 30
0.0
 11
432.9319715991873
 21
537.7338054901417
 31
0.0
  0
MTEXT
  5
5C5
330
1F
100
AcDbEntity
  8
文字
  6
Continuous
100
AcDbMText
 10
437.5534230315941
 20
544.7024402211479
 30
0.0
 40
3.0
 41
148.850109855771
 46
0.0
 71
     1
 72
     5
  1
{\fMS PGothic|b0|i0|c128|p50;【電気設備】角穴工法　ＲＣ床（ロックウール無し、鋼製スリーブ有り）}
 73
     1
 44
0.75
101
Embedded Object
 70
     1
 10
1.0
 20
0.0
 30
0.0
 11
437.5534230315941
 21
544.7024402211479
 31
0.0
 40
148.850109855771
 41
0.0
 42
121.4659090909091
 43
4.27840909090909
 71
     2
 72
     1
 44
148.850109855771
 45
0.8849620939533352
 73
     0
 74
     0
 46
10.53238702043993
  0
MTEXT
  5
5C6
330
1F
100
AcDbEntity
  8
文字
  6
Continuous
100
AcDbMText
 10
421.2273196168446
 20
544.7024402211479
 30
0.0
 40
3.0
 41
4.178825393072102
 46
0.0
 71
     1
 72
     5
  1
１
 73
     1
 44
0.75
101
Embedded Object
 70
     1
 10
1.0
 20
0.0
 30
0.0
 11
421.2273196168446
 21
544.7024402211479
 31
0.0
 40
4.178825393072102
 41
0.0
 42
1.244318181818181
 43
3.0
 71
     2
 72
     1
 44
4.178825393072102
 45
0.8849620939533352
 73
     0
 74
     0
 46
4.724757535192768
  0
MTEXT
  5
5C7
330
1F
100
AcDbEntity
  8
文字
  6
Continuous
100
AcDbMText
 10
600.3123183221503
 20
535.4734704189597
 30
0.0
 40
3.0
 41
21.16849155225112
 46
0.0
 71
     1
 72
     5
  1
単位：ｍｍ
 73
     1
 44
0.75
101
Embedded Object
 70
     1
 10
1.0
 20
0.0
 30
0.0
 11
600.3123183221503
 21
535.4734704189597
 31
0.0
 40
21.16849155225112
 41
0.0
 42
18.51136363636364
 43
3.886363636363636
 71
     2
 72
     1
 44
21.16849155225112
 45
0.8849620939533352
 73
     0
 74
     0
 46
10.53238702043993
  0
POLYLINE
  5
5C8
330
1F
100
AcDbEntity
  8
躯体・通線物他
  6
Continuous
370
    13
100
AcDb2dPolyline
 66
     1
 10
0.0
 20
0.0
 30
0.0
  0
VERTEX
  5
5C9
330
5C8
100
AcDbEntity
  8
躯体・通線物他
  6
Continuous
370
    13
100
AcDbVertex
100
AcDb2dVertex
 10
547.0703011785133
 20
402.9874609657616
 30
0.0
  0
VERTEX
  5
5CA
330
5C8
100
AcDbEntity
  8
躯体・通線物他
  6
Continuous
370
    13
100
AcDbVertex
100
AcDb2dVertex
 10
521.9501693016451
 20
402.9874609657616
 30
0.0
  0
SEQEND
  5
5CB
330
5C8
100
AcDbEntity
  8
躯体・通線物他
  6
Continuous
370
    13
  0
POLYLINE
  5
5CC
330
1F
100
AcDbEntity
  8
躯体・通線物他
  6
Continuous
370
    13
100
AcDb2dPolyline
 66
     1
 10
0.0
 20
0.0
 30
0.0
  0
VERTEX
  5
5CD
330
5CC
100
AcDbEntity
  8
躯体・通線物他
  6
Continuous
370
    13
100
AcDbVertex
100
AcDb2dVertex
 10
547.8255506662577
 20
383.1605623481059
 30
0.0
  0
VERTEX
  5
5CE
330
5CC
100
AcDbEntity
  8
躯体・通線物他
  6
Continuous
370
    13
100
AcDbVertex
100
AcDb2dVertex
 10
521.9501693016451
 20
383.1605623481061
 30
0.0
  0
SEQEND
  5
5CF
330
5CC
100
AcDbEntity
  8
躯体・通線物他
  6
Continuous
370
    13
  0
ARC
  5
5D0
330
1F
100
AcDbEntity
  8
躯体・通線物他
  6
Continuous
370
    13
100
AcDbCircle
 10
551.5240526573363
 20
397.8392949792586
 30
0.0
 40
6.807267895975369
100
AcDbArc
 50
130.8638789644638
 51
229.1331471197242
  0
ARC
  5
5D1
330
1F
100
AcDbEntity
  8
躯体・通線物他
  6
Continuous
370
    13
100
AcDbCircle
 10
542.616816906527
 20
387.543254309426
 30
0.0
 40
6.807267895975369
100
AcDbArc
 50
319.9223351403208
 51
49.13612103538607
  0
HATCH
  5
5D2
330
1F
100
AcDbEntity
  8
防火材
  6
Continuous
370
    13
100
AcDbHatch
 10
0.0
 20
0.0
 30
0.0
210
0.0
220
0.0
230
1.0
  2
AR-SAND
 70
     0
 71
     0
 91
        8
 92
        1
 93
        5
 72
     1
 10
483.9188841840145
 20
422.3799673095952
 11
481.2943827257615
 21
417.0048319044652
 72
     1
 10
481.2943827257615
 20
417.0048319044652
 11
482.8539583615639
 21
417.0048319044652
 72
     1
 10
482.8539583615639
 20
417.0048319044652
 11
482.8539583615639
 21
415.6846090704428
 72
     1
 10
482.8539583615639
 20
415.6846090704428
 11
483.9188841840145
 21
415.6846090704428
 72
     1
 10
483.9188841840145
 20
415.6846090704428
 11
483.9188841840145
 21
422.3799673095952
 97
        0
 92
        1
 93
        5
 72
     1
 10
488.310517489022
 20
415.6846090704428
 11
489.3754433114724
 21
415.6846090704428
 72
     1
 10
489.3754433114724
 20
415.6846090704428
 11
489.3754433114724
 21
417.0048319044652
 72
     1
 10
489.3754433114724
 20
417.0048319044652
 11
490.935018947275
 21
417.0048319044652
 72
     1
 10
490.935018947275
 20
417.0048319044652
 11
488.310517489022
 21
422.3799673095954
 72
     1
 10
488.310517489022
 20
422.3799673095954
 11
488.310517489022
 21
415.6846090704428
 97
        0
 92
        1
 93
        5
 72
     1
 10
509.3185710750331
 20
422.3799673095954
 11
506.6940696167802
 21
417.0048319044652
 72
     1
 10
506.6940696167802
 20
417.0048319044652
 11
508.2536452525825
 21
417.0048319044652
 72
     1
 10
508.2536452525825
 20
417.0048319044652
 11
508.2536452525825
 21
415.6846090704428
 72
     1
 10
508.2536452525825
 20
415.6846090704428
 11
509.3185710750331
 21
415.6846090704428
 72
     1
 10
509.3185710750331
 20
415.6846090704428
 11
509.3185710750331
 21
422.3799673095954
 97
        0
 92
        1
 93
        5
 72
     1
 10
513.7102043800407
 20
415.6846090704428
 11
514.7751302024913
 21
415.6846090704428
 72
     1
 10
514.7751302024913
 20
415.6846090704428
 11
514.7751302024913
 21
417.0048319044652
 72
     1
 10
514.7751302024913
 20
417.0048319044652
 11
516.3347058382937
 21
417.0048319044652
 72
     1
 10
516.3347058382937
 20
417.0048319044652
 11
513.7102043800407
 21
422.3799673095954
 72
     1
 10
513.7102043800407
 20
422.3799673095954
 11
513.7102043800407
 21
415.6846090704428
 97
        0
 92
        1
 93
        5
 72
     1
 10
513.7102043800407
 20
389.492032305245
 11
513.7102043800406
 21
384.8659781433901
 72
     1
 10
513.7102043800406
 20
384.8659781433901
 11
514.7751302024911
 21
384.8659781433901
 72
     1
 10
514.7751302024911
 20
384.8659781433901
 11
514.7751302024911
 21
386.1862009774124
 72
     1
 10
514.7751302024911
 20
386.1862009774124
 11
516.3347058382937
 21
386.1862009774124
 72
     1
 10
516.3347058382937
 20
386.1862009774124
 11
513.7102043800407
 21
389.492032305245
 97
        0
 92
        1
 93
        5
 72
     1
 10
509.3185710750331
 20
389.4920323052449
 11
506.6940696167802
 21
386.1862009774124
 72
     1
 10
506.6940696167802
 20
386.1862009774124
 11
508.2536452525825
 21
386.1862009774124
 72
     1
 10
508.2536452525825
 20
386.1862009774124
 11
508.2536452525824
 21
384.8659781433901
 72
     1
 10
508.2536452525824
 20
384.8659781433901
 11
509.3185710750329
 21
384.8659781433901
 72
     1
 10
509.3185710750329
 20
384.8659781433901
 11
509.3185710750331
 21
389.4920323052449
 97
        0
 92
        1
 93
        5
 72
     1
 10
488.3105174890219
 20
384.8659781433901
 11
489.3754433114724
 21
384.8659781433901
 72
     1
 10
489.3754433114724
 20
384.8659781433901
 11
489.3754433114724
 21
386.1862009774124
 72
     1
 10
489.3754433114724
 20
386.1862009774124
 11
490.935018947275
 21
386.1862009774124
 72
     1
 10
490.935018947275
 20
386.1862009774124
 11
488.310517489022
 21
389.4920323052449
 72
     1
 10
488.310517489022
 20
389.4920323052449
 11
488.3105174890219
 21
384.8659781433901
 97
        0
 92
        1
 93
        5
 72
     1
 10
482.8539583615638
 20
386.1862009774124
 11
482.8539583615638
 21
384.8659781433901
 72
     1
 10
482.8539583615638
 20
384.8659781433901
 11
483.9188841840145
 21
384.8659781433901
 72
     1
 10
483.9188841840145
 20
384.8659781433901
 11
483.9188841840145
 21
389.4920323052448
 72
     1
 10
483.9188841840145
 20
389.4920323052448
 11
481.2943827257615
 21
386.1862009774124
 72
     1
 10
481.2943827257615
 20
386.1862009774124
 11
482.8539583615638
 21
386.1862009774124
 97
        0
 75
     1
 76
     1
 52
0.0
 41
1.0
 77
     0
 78
     4
 53
37.5
 43
159.5427423752007
 44
261.3277853092286
 45
-0.0629933581096082
 46
1.926823769013158
 79
     6
 49
0.0
 49
-1.52
 49
0.0
 49
-1.7
 49
0.0
 49
-1.625
 53
7.499999999999999
 43
159.5427423752007
 44
261.3277853092286
 45
1.769776705267727
 46
2.82214606522974
 79
     6
 49
0.0
 49
-0.8199999999999999
 49
0.0
 49
-1.37
 49
0.0
 49
-0.525
 53
327.5
 43
158.3127423752007
 44
261.3277853092286
 45
3.114141861751495
 46
0.0056590535369649
 79
     6
 49
0.0
 49
-0.5
 49
0.0
 49
-1.8
 49
0.0
 49
-2.35
 53
317.5
 43
158.3127423752007
 44
261.3277853092286
 45
3.006126604572293
 46
0.8776755649342494
 79
     6
 49
0.0
 49
-0.25
 49
0.0
 49
-1.179999999999999
 49
0.0
 49
-1.35
 98
        8
 10
483.7924002506351
 20
417.5560054518255
 10
488.9683743088844
 20
418.164589024257
 10
508.6066466413285
 20
418.7731725966886
 10
514.3915618439641
 20
418.4688833243463
 10
514.3915618439641
 20
387.7353651529602
 10
508.9111120797169
 20
387.431070852871
 10
488.8161467234949
 20
387.1267815805286
 10
482.8789936678622
 20
386.8224872804394
1001
GradientColor1ACI
1070
     5
1001
GradientColor2ACI
1070
     2
1001
ACAD
1010
0.0
1020
0.0
1030
0.0
  0
LINE
  5
5D3
330
1F
100
AcDbEntity
  8
防火材
  6
Continuous
370
    13
100
AcDbLine
 10
526.4847627327542
 20
417.0048319044652
 30
0.0
 11
514.7751302024913
 21
417.0048319044652
 31
0.0
  0
LINE
  5
5D4
330
1F
100
AcDbEntity
  8
防火材
  6
Continuous
370
    13
100
AcDbLine
 10
526.4847627327542
 20
414.3643862364204
 30
0.0
 11
514.7751302024913
 21
414.3643862364204
 31
0.0
  0
LINE
  5
5D5
330
1F
100
AcDbEntity
  8
防火材
  6
Continuous
370
    13
100
AcDbLine
 10
509.3185710750331
 20
401.9207422402966
 30
0.0
 11
509.3185710750331
 21
433.1332194736157
 31
0.0
  0
LINE
  5
5D6
330
1F
100
AcDbEntity
  8
防火材
  6
Continuous
370
    13
100
AcDbLine
 10
509.1170069635884
 20
427.0872131248744
 30
0.0
 11
509.1170069635884
 21
427.6722907622733
 31
0.0
  0
LINE
  5
5D7
330
1F
100
AcDbEntity
  8
防火材
  6
Continuous
370
    13
100
AcDbLine
 10
509.3185710750331
 20
427.8738548737181
 30
0.0
 11
508.6393535686179
 21
427.8738548737181
 31
0.0
  0
LINE
  5
5D8
330
1F
100
AcDbEntity
  8
防火材
  6
Continuous
370
    13
100
AcDbLine
 10
509.1170069635884
 20
427.6722907622733
 30
0.0
 11
508.6393535686179
 21
427.6722907622733
 31
0.0
  0
LINE
  5
5D9
330
1F
100
AcDbEntity
  8
防火材
  6
Continuous
370
    13
100
AcDbLine
 10
508.4377894571733
 20
427.6722907622733
 30
0.0
 11
508.4377894571733
 21
427.499104835456
 31
0.0
  0
LINE
  5
5DA
330
1F
100
AcDbEntity
  8
防火材
  6
Continuous
370
    13
100
AcDbLine
 10
508.6393535686179
 20
427.6722907622733
 30
0.0
 11
508.6393535686179
 21
427.499104835456
 31
0.0
  0
ARC
  5
5DB
330
1F
100
AcDbEntity
  8
防火材
  6
Continuous
370
    13
100
AcDbCircle
 10
508.6393535686179
 20
427.6722907622733
 30
0.0
 40
0.2015641114447916
100
AcDbArc
 50
90.0
 51
180.0
  0
LINE
  5
5DC
330
1F
100
AcDbEntity
  8
防火材
  6
Continuous
370
    13
100
AcDbLine
 10
509.3185710750331
 20
427.0872131248744
 30
0.0
 11
509.1170069635884
 21
427.0872131248744
 31
0.0
  0
LINE
  5
5DD
330
1F
100
AcDbEntity
  8
防火材
  6
Continuous
370
    13
100
AcDbLine
 10
509.1170069635884
 20
426.6051709837841
 30
0.0
 11
509.1170069635884
 21
426.0200933463852
 31
0.0
  0
LINE
  5
5DE
330
1F
100
AcDbEntity
  8
防火材
  6
Continuous
370
    13
100
AcDbLine
 10
509.3185710750331
 20
425.8185292349404
 30
0.0
 11
508.6393535686179
 21
425.8185292349404
 31
0.0
  0
LINE
  5
5DF
330
1F
100
AcDbEntity
  8
防火材
  6
Continuous
370
    13
100
AcDbLine
 10
509.1170069635884
 20
426.0200933463852
 30
0.0
 11
508.6393535686179
 21
426.0200933463852
 31
0.0
  0
LINE
  5
5E0
330
1F
100
AcDbEntity
  8
防火材
  6
Continuous
370
    13
100
AcDbLine
 10
508.4377894571733
 20
426.0200933463852
 30
0.0
 11
508.4377894571733
 21
427.499104835456
 31
0.0
  0
LINE
  5
5E1
330
1F
100
AcDbEntity
  8
防火材
  6
Continuous
370
    13
100
AcDbLine
 10
508.6393535686179
 20
426.0200933463852
 30
0.0
 11
508.6393535686179
 21
427.499104835456
 31
0.0
  0
ARC
  5
5E2
330
1F
100
AcDbEntity
  8
防火材
  6
Continuous
370
    13
100
AcDbCircle
 10
508.6393535686179
 20
426.0200933463852
 30
0.0
 40
0.2015641114447916
100
AcDbArc
 50
180.0
 51
270.0
  0
LINE
  5
5E3
330
1F
100
AcDbEntity
  8
防火材
  6
Continuous
370
    13
100
AcDbLine
 10
509.3185710750331
 20
426.6051709837841
 30
0.0
 11
509.1170069635884
 21
426.6051709837841
 31
0.0
  0
ARC
  5
5E4
330
1F
100
AcDbEntity
  8
防火材
  6
Continuous
370
    13
100
AcDbCircle
 10
511.0498539953899
 20
432.5778653211607
 30
0.0
 40
0.8009095289565031
100
AcDbArc
 50
43.90020063049961
 51
136.0997993694958
  0
ARC
  5
5E5
330
1F
100
AcDbEntity
  8
防火材
  6
Continuous
370
    13
100
AcDbCircle
 10
509.8956653818186
 20
432.3771823694363
 30
0.0
 40
0.9511203613740363
100
AcDbArc
 50
52.64497037179019
 51
127.3550296282062
  0
ARC
  5
5E6
330
1F
100
AcDbEntity
  8
防火材
  6
Continuous
370
    13
100
AcDbCircle
 10
509.8956653818183
 20
433.8892565777954
 30
0.0
 40
0.9511203613739443
100
AcDbArc
 50
232.6449703718065
 51
307.3550296282307
  0
LINE
  5
5E7
330
1F
100
AcDbEntity
  8
防火材
  6
Continuous
370
    13
100
AcDbLine
 10
513.7102043800407
 20
433.1332194736157
 30
0.0
 11
513.7102043800407
 21
401.9207422402966
 31
0.0
  0
LINE
  5
5E8
330
1F
100
AcDbEntity
  8
防火材
  6
Continuous
370
    13
100
AcDbLine
 10
511.6269483021754
 20
433.2607800370507
 30
0.0
 11
511.6269483021754
 21
401.9207422402966
 31
0.0
  0
ARC
  5
5E9
330
1F
100
AcDbEntity
  8
防火材
  6
Continuous
370
    13
100
AcDbCircle
 10
513.1331100732552
 20
432.5778653211607
 30
0.0
 40
0.8009095289565031
100
AcDbArc
 50
43.90020063049961
 51
136.0997993694958
  0
ARC
  5
5EA
330
1F
100
AcDbEntity
  8
防火材
  6
Continuous
370
    13
100
AcDbCircle
 10
511.9789214596839
 20
432.3771823694363
 30
0.0
 40
0.9511203613740363
100
AcDbArc
 50
52.64497037179019
 51
111.719418619641
  0
ARC
  5
5EB
330
1F
100
AcDbEntity
  8
防火材
  6
Continuous
370
    13
100
AcDbCircle
 10
511.9789214596838
 20
433.8892565777954
 30
0.0
 40
0.9511203613739443
100
AcDbArc
 50
248.2805813803765
 51
307.3550296282307
  0
LINE
  5
5EC
330
1F
100
AcDbEntity
  8
防火材
  6
Continuous
370
    13
100
AcDbLine
 10
514.7751302024913
 20
417.0048319044652
 30
0.0
 11
514.7751302024913
 21
414.3643862364204
 31
0.0
  0
LINE
  5
5ED
330
1F
100
AcDbEntity
  8
防火材
  6
Continuous
370
    13
100
AcDbLine
 10
509.3185710750331
 20
401.9207422402966
 30
0.0
 11
509.3185710750331
 21
370.7082650069775
 31
0.0
  0
LINE
  5
5EE
330
1F
100
AcDbEntity
  8
防火材
  6
Continuous
370
    13
100
AcDbLine
 10
509.1170069635884
 20
376.7542713557189
 30
0.0
 11
509.1170069635884
 21
376.1691937183199
 31
0.0
  0
LINE
  5
5EF
330
1F
100
AcDbEntity
  8
防火材
  6
Continuous
370
    13
100
AcDbLine
 10
509.3185710750331
 20
375.9676296068751
 30
0.0
 11
508.6393535686179
 21
375.9676296068751
 31
0.0
  0
LINE
  5
5F0
330
1F
100
AcDbEntity
  8
防火材
  6
Continuous
370
    13
100
AcDbLine
 10
509.1170069635884
 20
376.1691937183199
 30
0.0
 11
508.6393535686179
 21
376.1691937183199
 31
0.0
  0
LINE
  5
5F1
330
1F
100
AcDbEntity
  8
防火材
  6
Continuous
370
    13
100
AcDbLine
 10
508.4377894571733
 20
376.1691937183199
 30
0.0
 11
508.4377894571733
 21
376.3423796451373
 31
0.0
  0
LINE
  5
5F2
330
1F
100
AcDbEntity
  8
防火材
  6
Continuous
370
    13
100
AcDbLine
 10
508.6393535686179
 20
376.1691937183199
 30
0.0
 11
508.6393535686179
 21
376.3423796451373
 31
0.0
  0
ARC
  5
5F3
330
1F
100
AcDbEntity
  8
防火材
  6
Continuous
370
    13
100
AcDbCircle
 10
508.6393535686179
 20
376.1691937183199
 30
0.0
 40
0.2015641114447916
100
AcDbArc
 50
180.0
 51
270.0
  0
LINE
  5
5F4
330
1F
100
AcDbEntity
  8
防火材
  6
Continuous
370
    13
100
AcDbLine
 10
509.3185710750331
 20
376.7542713557189
 30
0.0
 11
509.1170069635884
 21
376.7542713557189
 31
0.0
  0
LINE
  5
5F5
330
1F
100
AcDbEntity
  8
防火材
  6
Continuous
370
    13
100
AcDbLine
 10
509.1170069635884
 20
377.2363134968091
 30
0.0
 11
509.1170069635884
 21
377.821391134208
 31
0.0
  0
LINE
  5
5F6
330
1F
100
AcDbEntity
  8
防火材
  6
Continuous
370
    13
100
AcDbLine
 10
509.3185710750331
 20
378.0229552456528
 30
0.0
 11
508.6393535686179
 21
378.0229552456528
 31
0.0
  0
LINE
  5
5F7
330
1F
100
AcDbEntity
  8
防火材
  6
Continuous
370
    13
100
AcDbLine
 10
509.1170069635884
 20
377.821391134208
 30
0.0
 11
508.6393535686179
 21
377.821391134208
 31
0.0
  0
LINE
  5
5F8
330
1F
100
AcDbEntity
  8
防火材
  6
Continuous
370
    13
100
AcDbLine
 10
508.4377894571733
 20
377.821391134208
 30
0.0
 11
508.4377894571733
 21
376.3423796451373
 31
0.0
  0
LINE
  5
5F9
330
1F
100
AcDbEntity
  8
防火材
  6
Continuous
370
    13
100
AcDbLine
 10
508.6393535686179
 20
377.821391134208
 30
0.0
 11
508.6393535686179
 21
376.3423796451373
 31
0.0
  0
ARC
  5
5FA
330
1F
100
AcDbEntity
  8
防火材
  6
Continuous
370
    13
100
AcDbCircle
 10
508.6393535686179
 20
377.821391134208
 30
0.0
 40
0.2015641114447916
100
AcDbArc
 50
90.0
 51
180.0
  0
LINE
  5
5FB
330
1F
100
AcDbEntity
  8
防火材
  6
Continuous
370
    13
100
AcDbLine
 10
509.3185710750331
 20
377.2363134968091
 30
0.0
 11
509.1170069635884
 21
377.2363134968091
 31
0.0
  0
ARC
  5
5FC
330
1F
100
AcDbEntity
  8
防火材
  6
Continuous
370
    13
100
AcDbCircle
 10
511.0498539953899
 20
371.2636191594326
 30
0.0
 40
0.8009095289565031
100
AcDbArc
 50
223.9002006305041
 51
316.0997993695004
  0
ARC
  5
5FD
330
1F
100
AcDbEntity
  8
防火材
  6
Continuous
370
    13
100
AcDbCircle
 10
509.8956653818186
 20
371.464302111157
 30
0.0
 40
0.9511203613740363
100
AcDbArc
 50
232.6449703717902
 51
307.3550296282098
  0
ARC
  5
5FE
330
1F
100
AcDbEntity
  8
防火材
  6
Continuous
370
    13
100
AcDbCircle
 10
509.8956653818183
 20
369.9522279027978
 30
0.0
 40
0.9511203613739443
100
AcDbArc
 50
52.64497037176935
 51
127.3550296281935
  0
LINE
  5
5FF
330
1F
100
AcDbEntity
  8
防火材
  6
Continuous
370
    13
100
AcDbLine
 10
513.7102043800406
 20
370.7082650069776
 30
0.0
 11
513.7102043800407
 21
401.9207422402966
 31
0.0
  0
LINE
  5
600
330
1F
100
AcDbEntity
  8
防火材
  6
Continuous
370
    13
100
AcDbLine
 10
511.6269483021754
 20
370.5807044435426
 30
0.0
 11
511.6269483021754
 21
401.9207422402966
 31
0.0
  0
ARC
  5
601
330
1F
100
AcDbEntity
  8
防火材
  6
Continuous
370
    13
100
AcDbCircle
 10
513.1331100732552
 20
371.2636191594326
 30
0.0
 40
0.8009095289565031
100
AcDbArc
 50
223.9002006305041
 51
316.0997993695004
  0
ARC
  5
602
330
1F
100
AcDbEntity
  8
防火材
  6
Continuous
370
    13
100
AcDbCircle
 10
511.9789214596839
 20
371.464302111157
 30
0.0
 40
0.9511203613740363
100
AcDbArc
 50
248.2805813803589
 51
307.3550296282098
  0
ARC
  5
603
330
1F
100
AcDbEntity
  8
防火材
  6
Continuous
370
    13
100
AcDbCircle
 10
511.9789214596838
 20
369.9522279027978
 30
0.0
 40
0.9511203613739443
100
AcDbArc
 50
52.64497037176935
 51
111.7194186196235
  0
DIMENSION
  5
608
330
1F
100
AcDbEntity
  8
寸法
  6
Continuous
100
AcDbDimension
280
     0
  2
*D6
 10
553.7152396754411
 20
402.9131185106749
 30
0.0
 11
557.3977784188295
 21
393.0368404293903
 31
0.0
 70
   160
  1
床厚１００以上
 71
     5
 42
19.75255616256879
 73
     0
 74
     0
 75
     0
 53
90.0
  3
Standard
100
AcDbAlignedDimension
 13
549.7298756245279
 23
383.1605623481059
 33
0.0
 14
548.8901829327369
 24
402.9131185106747
 34
0.0
 50
90.0
100
AcDbRotatedDimension
1001
ACAD
1000
DSTYLE
1002
{
1070
    41
1040
2.0
1070
    42
1040
0.0
1070
    77
1070
     1
1070
   140
1040
3.0
1070
   147
1040
1.0
1070
   279
1070
     2
1002
}
  0
MULTILEADER
  5
609
330
1F
100
AcDbEntity
  8
文字
  6
Continuous
160
               704
310
C0020000190000000C00000016000000000000C00C00000033000000000000000C00000013000000993A0000C000000026000000A5614B5600438040627E41EFDBBC7640000000000000000000000000000000000000000000000000000000000000F03F000000000000F03F000000000000000000000000000000001A90DA
310
7D6972000003000000010000000000000000000840000000000000F03F0000000000000000000000000000F03F0000000000000000000000000000000000000000000000000000000001000000320000002DFF33FF200030FFB430B730C330AF3000000000000039AA000000000C00000033000000000000000C0000001000
310
0000040000000C00000016000000000000C00C00000012000000000000000C00000013000000010000000C0000001400000001000000540000000700000003000000FC11832E98128040BF44D8011855774000000000000000001A7FD1135C0D8040A036C1A2CC73774000000000000000009815AD704A17804035FDB12926
310
5A774000000000000000000C00000014000000010000000C00000013000000891300003C0000000600000002000000CA13984FF1148040FA20C5159F57774000000000000000002225268E2C418040C8E4A75542B3764000000000000000000C00000013000000112700003C00000006000000020000002225268E2C418040
310
C8E4A75542B3764000000000000000009D39D4D50D448040C8E4A75542B3764000000000000000000C00000016000000000000C00C00000012000000000000000C00000017000000000000000C000000130000009A3A00003C00000006000000020000009D39D4D50D448040C8E4A75542B376400000000000000000309005
310
3F23A98040C8E4A75542B3764000000000000000000C00000016000000000000C00C00000012000000000000000C00000017000000FFFFFFFF0C0000003300000000000000
100
AcDbMLeader
270
     2
300
CONTEXT_DATA{
 40
1.0
 10
520.5067555027086
 20
363.2036949690196
 30
0.0
 41
3.0
140
2.0
145
0.09
174
     5
175
     5
176
     0
177
     0
290
     1
304
通線物
 11
0.0
 21
0.0
 31
1.0
340
11
 12
520.5967555027086
 22
367.3661949690196
 32
0.0
 13
1.0
 23
0.0
 33
0.0
 42
0.0
 43
0.0
 44
0.0
 45
1.0
170
     1
 90
-1073741824
171
     1
172
     5
 91
-1073741824
141
0.0
 92
        0
291
     0
292
     0
173
     0
293
     0
142
0.0
143
0.0
294
     0
295
     0
296
     0
110
518.0357129442854
120
353.8262786032527
130
0.0
111
1.0
121
0.0
131
0.0
112
0.0
122
1.0
132
0.0
297
     0
302
LEADER{
290
     1
291
     1
 10
520.1467555027086
 20
363.2036949690196
 30
0.0
 11
1.0
 21
0.0
 31
0.0
 90
        0
 40
0.36
304
LEADER_LINE{
 10
513.6699596754945
 20
375.2374599025152
 30
0.0
 91
        0
305
}
271
     0
303
}
272
     9
273
     9
301
}
340
12E
 90
 33904128
170
     1
 91
-1056964608
341
14
171
    -2
290
     1
291
     1
 41
0.36
 42
2.0
172
     2
343
11
173
     5
 95
        5
174
     1
175
     0
 92
-1056964608
292
     0
 93
-1056964608
 10
1.0
 20
1.0
 30
1.0
 43
0.0
176
     0
293
     0
294
     0
178
     0
179
     1
 45
1.0
271
     0
272
     9
273
     9
295
     0
  0
LINE
  5
60A
330
1F
100
AcDbEntity
  8
防火材
  6
Continuous
370
    13
100
AcDbLine
 10
483.9188841840145
 20
401.9207422402966
 30
0.0
 11
483.9188841840145
 21
433.1332194736157
 31
0.0
  0
LINE
  5
60B
330
1F
100
AcDbEntity
  8
防火材
  6
Continuous
370
    13
100
AcDbLine
 10
483.7173200725697
 20
427.0872131248744
 30
0.0
 11
483.7173200725697
 21
427.6722907622733
 31
0.0
  0
LINE
  5
60C
330
1F
100
AcDbEntity
  8
防火材
  6
Continuous
370
    13
100
AcDbLine
 10
483.9188841840145
 20
427.8738548737181
 30
0.0
 11
483.2396666775991
 21
427.8738548737181
 31
0.0
  0
LINE
  5
60D
330
1F
100
AcDbEntity
  8
防火材
  6
Continuous
370
    13
100
AcDbLine
 10
483.7173200725697
 20
427.6722907622733
 30
0.0
 11
483.2396666775991
 21
427.6722907622733
 31
0.0
  0
LINE
  5
60E
330
1F
100
AcDbEntity
  8
防火材
  6
Continuous
370
    13
100
AcDbLine
 10
483.0381025661544
 20
427.6722907622733
 30
0.0
 11
483.0381025661544
 21
427.499104835456
 31
0.0
  0
LINE
  5
60F
330
1F
100
AcDbEntity
  8
防火材
  6
Continuous
370
    13
100
AcDbLine
 10
483.2396666775991
 20
427.6722907622733
 30
0.0
 11
483.2396666775991
 21
427.499104835456
 31
0.0
  0
ARC
  5
610
330
1F
100
AcDbEntity
  8
防火材
  6
Continuous
370
    13
100
AcDbCircle
 10
483.2396666775991
 20
427.6722907622733
 30
0.0
 40
0.2015641114447916
100
AcDbArc
 50
90.0
 51
180.0
  0
LINE
  5
611
330
1F
100
AcDbEntity
  8
防火材
  6
Continuous
370
    13
100
AcDbLine
 10
483.9188841840145
 20
427.0872131248744
 30
0.0
 11
483.7173200725697
 21
427.0872131248744
 31
0.0
  0
LINE
  5
612
330
1F
100
AcDbEntity
  8
防火材
  6
Continuous
370
    13
100
AcDbLine
 10
483.7173200725697
 20
426.6051709837841
 30
0.0
 11
483.7173200725697
 21
426.0200933463852
 31
0.0
  0
LINE
  5
613
330
1F
100
AcDbEntity
  8
防火材
  6
Continuous
370
    13
100
AcDbLine
 10
483.9188841840145
 20
425.8185292349404
 30
0.0
 11
483.2396666775991
 21
425.8185292349404
 31
0.0
  0
LINE
  5
614
330
1F
100
AcDbEntity
  8
防火材
  6
Continuous
370
    13
100
AcDbLine
 10
483.7173200725697
 20
426.0200933463852
 30
0.0
 11
483.2396666775991
 21
426.0200933463852
 31
0.0
  0
LINE
  5
615
330
1F
100
AcDbEntity
  8
防火材
  6
Continuous
370
    13
100
AcDbLine
 10
483.0381025661544
 20
426.0200933463852
 30
0.0
 11
483.0381025661544
 21
427.499104835456
 31
0.0
  0
LINE
  5
616
330
1F
100
AcDbEntity
  8
防火材
  6
Continuous
370
    13
100
AcDbLine
 10
483.2396666775991
 20
426.0200933463852
 30
0.0
 11
483.2396666775991
 21
427.499104835456
 31
0.0
  0
ARC
  5
617
330
1F
100
AcDbEntity
  8
防火材
  6
Continuous
370
    13
100
AcDbCircle
 10
483.2396666775991
 20
426.0200933463852
 30
0.0
 40
0.2015641114447916
100
AcDbArc
 50
180.0
 51
270.0
  0
LINE
  5
618
330
1F
100
AcDbEntity
  8
防火材
  6
Continuous
370
    13
100
AcDbLine
 10
483.9188841840145
 20
426.6051709837841
 30
0.0
 11
483.7173200725697
 21
426.6051709837841
 31
0.0
  0
ARC
  5
619
330
1F
100
AcDbEntity
  8
防火材
  6
Continuous
370
    13
100
AcDbCircle
 10
485.650167104371
 20
432.5778653211607
 30
0.0
 40
0.8009095289565031
100
AcDbArc
 50
43.90020063049961
 51
136.0997993694958
  0
ARC
  5
61A
330
1F
100
AcDbEntity
  8
防火材
  6
Continuous
370
    13
100
AcDbCircle
 10
484.4959784908
 20
432.3771823694363
 30
0.0
 40
0.9511203613740363
100
AcDbArc
 50
52.64497037179019
 51
127.3550296282062
  0
ARC
  5
61B
330
1F
100
AcDbEntity
  8
防火材
  6
Continuous
370
    13
100
AcDbCircle
 10
484.4959784907997
 20
433.8892565777954
 30
0.0
 40
0.9511203613739443
100
AcDbArc
 50
232.6449703718065
 51
307.3550296282307
  0
LINE
  5
61C
330
1F
100
AcDbEntity
  8
防火材
  6
Continuous
370
    13
100
AcDbLine
 10
488.310517489022
 20
433.1332194736157
 30
0.0
 11
488.310517489022
 21
401.9207422402966
 31
0.0
  0
LINE
  5
61D
330
1F
100
AcDbEntity
  8
防火材
  6
Continuous
370
    13
100
AcDbLine
 10
486.2272614111566
 20
433.2607800370507
 30
0.0
 11
486.2272614111566
 21
401.9207422402966
 31
0.0
  0
ARC
  5
61E
330
1F
100
AcDbEntity
  8
防火材
  6
Continuous
370
    13
100
AcDbCircle
 10
487.7334231822365
 20
432.5778653211607
 30
0.0
 40
0.8009095289565031
100
AcDbArc
 50
43.90020063049961
 51
136.0997993694958
  0
ARC
  5
61F
330
1F
100
AcDbEntity
  8
防火材
  6
Continuous
370
    13
100
AcDbCircle
 10
486.5792345686653
 20
432.3771823694363
 30
0.0
 40
0.9511203613740363
100
AcDbArc
 50
52.64497037179019
 51
111.719418619641
  0
ARC
  5
620
330
1F
100
AcDbEntity
  8
防火材
  6
Continuous
370
    13
100
AcDbCircle
 10
486.5792345686649
 20
433.8892565777954
 30
0.0
 40
0.9511203613739443
100
AcDbArc
 50
248.2805813803765
 51
307.3550296282307
  0
LINE
  5
621
330
1F
100
AcDbEntity
  8
防火材
  6
Continuous
370
    13
100
AcDbLine
 10
489.3754433114724
 20
417.0048319044652
 30
0.0
 11
489.3754433114724
 21
414.3643862364204
 31
0.0
  0
LINE
  5
622
330
1F
100
AcDbEntity
  8
防火材
  6
Continuous
370
    13
100
AcDbLine
 10
483.9188841840145
 20
401.9207422402966
 30
0.0
 11
483.9188841840145
 21
370.7082650069775
 31
0.0
  0
LINE
  5
623
330
1F
100
AcDbEntity
  8
防火材
  6
Continuous
370
    13
100
AcDbLine
 10
483.7173200725697
 20
376.7542713557189
 30
0.0
 11
483.7173200725697
 21
376.1691937183199
 31
0.0
  0
LINE
  5
624
330
1F
100
AcDbEntity
  8
防火材
  6
Continuous
370
    13
100
AcDbLine
 10
483.9188841840145
 20
375.9676296068751
 30
0.0
 11
483.2396666775991
 21
375.9676296068751
 31
0.0
  0
LINE
  5
625
330
1F
100
AcDbEntity
  8
防火材
  6
Continuous
370
    13
100
AcDbLine
 10
483.7173200725697
 20
376.1691937183199
 30
0.0
 11
483.2396666775991
 21
376.1691937183199
 31
0.0
  0
LINE
  5
626
330
1F
100
AcDbEntity
  8
防火材
  6
Continuous
370
    13
100
AcDbLine
 10
483.0381025661544
 20
376.1691937183199
 30
0.0
 11
483.0381025661544
 21
376.3423796451373
 31
0.0
  0
LINE
  5
627
330
1F
100
AcDbEntity
  8
防火材
  6
Continuous
370
    13
100
AcDbLine
 10
483.2396666775991
 20
376.1691937183199
 30
0.0
 11
483.2396666775991
 21
376.3423796451373
 31
0.0
  0
ARC
  5
628
330
1F
100
AcDbEntity
  8
防火材
  6
Continuous
370
    13
100
AcDbCircle
 10
483.2396666775991
 20
376.1691937183199
 30
0.0
 40
0.2015641114447916
100
AcDbArc
 50
180.0
 51
270.0
  0
LINE
  5
629
330
1F
100
AcDbEntity
  8
防火材
  6
Continuous
370
    13
100
AcDbLine
 10
483.9188841840145
 20
376.7542713557189
 30
0.0
 11
483.7173200725697
 21
376.7542713557189
 31
0.0
  0
LINE
  5
62A
330
1F
100
AcDbEntity
  8
防火材
  6
Continuous
370
    13
100
AcDbLine
 10
483.7173200725697
 20
377.2363134968091
 30
0.0
 11
483.7173200725697
 21
377.821391134208
 31
0.0
  0
LINE
  5
62B
330
1F
100
AcDbEntity
  8
防火材
  6
Continuous
370
    13
100
AcDbLine
 10
483.9188841840145
 20
378.0229552456528
 30
0.0
 11
483.2396666775991
 21
378.0229552456528
 31
0.0
  0
LINE
  5
62C
330
1F
100
AcDbEntity
  8
防火材
  6
Continuous
370
    13
100
AcDbLine
 10
483.7173200725697
 20
377.821391134208
 30
0.0
 11
483.2396666775991
 21
377.821391134208
 31
0.0
  0
LINE
  5
62D
330
1F
100
AcDbEntity
  8
防火材
  6
Continuous
370
    13
100
AcDbLine
 10
483.0381025661544
 20
377.821391134208
 30
0.0
 11
483.0381025661544
 21
376.3423796451373
 31
0.0
  0
LINE
  5
62E
330
1F
100
AcDbEntity
  8
防火材
  6
Continuous
370
    13
100
AcDbLine
 10
483.2396666775991
 20
377.821391134208
 30
0.0
 11
483.2396666775991
 21
376.3423796451373
 31
0.0
  0
ARC
  5
62F
330
1F
100
AcDbEntity
  8
防火材
  6
Continuous
370
    13
100
AcDbCircle
 10
483.2396666775991
 20
377.821391134208
 30
0.0
 40
0.2015641114447916
100
AcDbArc
 50
90.0
 51
180.0
  0
LINE
  5
630
330
1F
100
AcDbEntity
  8
防火材
  6
Continuous
370
    13
100
AcDbLine
 10
483.9188841840145
 20
377.2363134968091
 30
0.0
 11
483.7173200725697
 21
377.2363134968091
 31
0.0
  0
ARC
  5
631
330
1F
100
AcDbEntity
  8
防火材
  6
Continuous
370
    13
100
AcDbCircle
 10
485.650167104371
 20
371.2636191594326
 30
0.0
 40
0.8009095289565031
100
AcDbArc
 50
223.9002006305041
 51
316.0997993695004
  0
ARC
  5
632
330
1F
100
AcDbEntity
  8
防火材
  6
Continuous
370
    13
100
AcDbCircle
 10
484.4959784908
 20
371.464302111157
 30
0.0
 40
0.9511203613740363
100
AcDbArc
 50
232.6449703717902
 51
307.3550296282098
  0
ARC
  5
633
330
1F
100
AcDbEntity
  8
防火材
  6
Continuous
370
    13
100
AcDbCircle
 10
484.4959784907996
 20
369.9522279027978
 30
0.0
 40
0.9511203613739443
100
AcDbArc
 50
52.64497037176935
 51
127.3550296281935
  0
LINE
  5
634
330
1F
100
AcDbEntity
  8
防火材
  6
Continuous
370
    13
100
AcDbLine
 10
488.310517489022
 20
370.7082650069776
 30
0.0
 11
488.310517489022
 21
401.9207422402966
 31
0.0
  0
LINE
  5
635
330
1F
100
AcDbEntity
  8
防火材
  6
Continuous
370
    13
100
AcDbLine
 10
486.2272614111566
 20
370.5807044435426
 30
0.0
 11
486.2272614111566
 21
401.9207422402966
 31
0.0
  0
ARC
  5
636
330
1F
100
AcDbEntity
  8
防火材
  6
Continuous
370
    13
100
AcDbCircle
 10
487.7334231822365
 20
371.2636191594326
 30
0.0
 40
0.8009095289565031
100
AcDbArc
 50
223.9002006305041
 51
316.0997993695004
  0
ARC
  5
637
330
1F
100
AcDbEntity
  8
防火材
  6
Continuous
370
    13
100
AcDbCircle
 10
486.5792345686653
 20
371.464302111157
 30
0.0
 40
0.9511203613740363
100
AcDbArc
 50
248.2805813803589
 51
307.3550296282098
  0
ARC
  5
638
330
1F
100
AcDbEntity
  8
防火材
  6
Continuous
370
    13
100
AcDbCircle
 10
486.5792345686649
 20
369.9522279027978
 30
0.0
 40
0.9511203613739443
100
AcDbArc
 50
52.64497037176935
 51
111.7194186196235
  0
LINE
  5
639
330
1F
100
AcDbEntity
  8
防火材
  6
Continuous
370
    13
100
AcDbLine
 10
508.2536452525825
 20
417.0048319044652
 30
0.0
 11
508.2536452525825
 21
414.3643862364204
 31
0.0
  0
LINE
  5
63A
330
1F
100
AcDbEntity
  8
防火材
  6
Continuous
370
    13
100
AcDbLine
 10
489.3754433114724
 20
417.0048319044652
 30
0.0
 11
508.2536452525825
 21
417.0048319044652
 31
0.0
  0
LINE
  5
63B
330
1F
100
AcDbEntity
  8
防火材
  6
Continuous
370
    13
100
AcDbLine
 10
489.3754433114724
 20
414.3643862364204
 30
0.0
 11
508.2536452525825
 21
414.3643862364204
 31
0.0
  0
POLYLINE
  5
63C
330
1F
100
AcDbEntity
  8
躯体・通線物他
  6
Continuous
370
    13
100
AcDb2dPolyline
 66
     1
 10
0.0
 20
0.0
 30
0.0
  0
VERTEX
  5
63D
330
63C
100
AcDbEntity
  8
躯体・通線物他
  6
Continuous
370
    13
100
AcDbVertex
100
AcDb2dVertex
 10
475.6789192624101
 20
386.2420626605241
 30
0.0
  0
VERTEX
  5
63E
330
63C
100
AcDbEntity
  8
躯体・通線物他
  6
Continuous
370
    13
100
AcDbVertex
100
AcDb2dVertex
 10
472.5974189499794
 20
383.1605623481059
 30
0.0
  0
SEQEND
  5
63F
330
63C
100
AcDbEntity
  8
躯体・通線物他
  6
Continuous
370
    13
  0
POLYLINE
  5
640
330
1F
100
AcDbEntity
  8
躯体・通線物他
  6
Continuous
370
    13
100
AcDb2dPolyline
 66
     1
 10
0.0
 20
0.0
 30
0.0
  0
VERTEX
  5
641
330
640
100
AcDbEntity
  8
躯体・通線物他
  6
Continuous
370
    13
100
AcDbVertex
100
AcDb2dVertex
 10
475.6789192624101
 20
388.5716405735684
 30
0.0
  0
VERTEX
  5
642
330
640
100
AcDbEntity
  8
躯体・通線物他
  6
Continuous
370
    13
100
AcDbVertex
100
AcDb2dVertex
 10
470.2674679151892
 20
383.1605623481059
 30
0.0
  0
SEQEND
  5
643
330
640
100
AcDbEntity
  8
躯体・通線物他
  6
Continuous
370
    13
  0
POLYLINE
  5
644
330
1F
100
AcDbEntity
  8
躯体・通線物他
  6
Continuous
370
    13
100
AcDb2dPolyline
 66
     1
 10
0.0
 20
0.0
 30
0.0
  0
VERTEX
  5
645
330
644
100
AcDbEntity
  8
躯体・通線物他
  6
Continuous
370
    13
100
AcDbVertex
100
AcDb2dVertex
 10
475.6789192624101
 20
390.9014126434387
 30
0.0
  0
VERTEX
  5
646
330
644
100
AcDbEntity
  8
躯体・通線物他
  6
Continuous
370
    13
100
AcDbVertex
100
AcDb2dVertex
 10
467.9380689670678
 20
383.1605623481059
 30
0.0
  0
SEQEND
  5
647
330
644
100
AcDbEntity
  8
躯体・通線物他
  6
Continuous
370
    13
  0
POLYLINE
  5
648
330
1F
100
AcDbEntity
  8
躯体・通線物他
  6
Continuous
370
    13
100
AcDb2dPolyline
 66
     1
 10
0.0
 20
0.0
 30
0.0
  0
VERTEX
  5
649
330
648
100
AcDbEntity
  8
躯体・通線物他
  6
Continuous
370
    13
100
AcDbVertex
100
AcDb2dVertex
 10
460.8023196957592
 20
402.9874609657616
 30
0.0
  0
VERTEX
  5
64A
330
648
100
AcDbEntity
  8
躯体・通線物他
  6
Continuous
370
    13
100
AcDbVertex
100
AcDb2dVertex
 10
450.5309796516747
 20
392.7155978921998
 30
0.0
  0
SEQEND
  5
64B
330
648
100
AcDbEntity
  8
躯体・通線物他
  6
Continuous
370
    13
  0
POLYLINE
  5
64C
330
1F
100
AcDbEntity
  8
躯体・通線物他
  6
Continuous
370
    13
100
AcDb2dPolyline
 66
     1
 10
0.0
 20
0.0
 30
0.0
  0
VERTEX
  5
64D
330
64C
100
AcDbEntity
  8
躯体・通線物他
  6
Continuous
370
    13
100
AcDbVertex
100
AcDb2dVertex
 10
458.4731822623766
 20
402.9874609657616
 30
0.0
  0
VERTEX
  5
64E
330
64C
100
AcDbEntity
  8
躯体・通線物他
  6
Continuous
370
    13
100
AcDbVertex
100
AcDb2dVertex
 10
449.4289856004843
 20
393.9439907337028
 30
0.0
  0
SEQEND
  5
64F
330
64C
100
AcDbEntity
  8
躯体・通線物他
  6
Continuous
370
    13
  0
POLYLINE
  5
650
330
1F
100
AcDbEntity
  8
躯体・通線物他
  6
Continuous
370
    13
100
AcDb2dPolyline
 66
     1
 10
0.0
 20
0.0
 30
0.0
  0
VERTEX
  5
651
330
650
100
AcDbEntity
  8
躯体・通線物他
  6
Continuous
370
    13
100
AcDbVertex
100
AcDb2dVertex
 10
456.1432312275865
 20
402.9874609657616
 30
0.0
  0
VERTEX
  5
652
330
650
100
AcDbEntity
  8
躯体・通線物他
  6
Continuous
370
    13
100
AcDbVertex
100
AcDb2dVertex
 10
448.6286633288483
 20
395.4723409803546
 30
0.0
  0
SEQEND
  5
653
330
650
100
AcDbEntity
  8
躯体・通線物他
  6
Continuous
370
    13
  0
POLYLINE
  5
654
330
1F
100
AcDbEntity
  8
躯体・通線物他
  6
Continuous
370
    13
100
AcDb2dPolyline
 66
     1
 10
0.0
 20
0.0
 30
0.0
  0
VERTEX
  5
655
330
654
100
AcDbEntity
  8
躯体・通線物他
  6
Continuous
370
    13
100
AcDbVertex
100
AcDb2dVertex
 10
450.5587873855417
 20
402.9874609657616
 30
0.0
  0
VERTEX
  5
656
330
654
100
AcDbEntity
  8
躯体・通線物他
  6
Continuous
370
    13
100
AcDbVertex
100
AcDb2dVertex
 10
475.6789192624101
 20
402.9874609657616
 30
0.0
  0
SEQEND
  5
657
330
654
100
AcDbEntity
  8
躯体・通線物他
  6
Continuous
370
    13
  0
POLYLINE
  5
658
330
1F
100
AcDbEntity
  8
躯体・通線物他
  6
Continuous
370
    13
100
AcDb2dPolyline
 66
     1
 10
0.0
 20
0.0
 30
0.0
  0
VERTEX
  5
659
330
658
100
AcDbEntity
  8
躯体・通線物他
  6
Continuous
370
    13
100
AcDbVertex
100
AcDb2dVertex
 10
451.3140368732861
 20
383.1605623481059
 30
0.0
  0
VERTEX
  5
65A
330
658
100
AcDbEntity
  8
躯体・通線物他
  6
Continuous
370
    13
100
AcDbVertex
100
AcDb2dVertex
 10
475.6789192624101
 20
383.1605623481061
 30
0.0
  0
SEQEND
  5
65B
330
658
100
AcDbEntity
  8
躯体・通線物他
  6
Continuous
370
    13
  0
ARC
  5
65C
330
1F
100
AcDbEntity
  8
躯体・通線物他
  6
Continuous
370
    13
100
AcDbCircle
 10
455.0125388643648
 20
397.8392949792586
 30
0.0
 40
6.807267895975369
100
AcDbArc
 50
130.8638789644638
 51
229.1331471197242
  0
ARC
  5
65D
330
1F
100
AcDbEntity
  8
躯体・通線物他
  6
Continuous
370
    13
100
AcDbCircle
 10
446.1053031135556
 20
387.543254309426
 30
0.0
 40
6.807267895975369
100
AcDbArc
 50
319.9223351403208
 51
49.13612103538607
  0
LINE
  5
65E
330
1F
100
AcDbEntity
  8
防火材
  6
Continuous
370
    13
100
AcDbLine
 10
471.1443258313009
 20
414.3643862364204
 30
0.0
 11
471.144325831301
 21
417.0048319044652
 31
0.0
  0
LINE
  5
65F
330
1F
100
AcDbEntity
  8
防火材
  6
Continuous
370
    13
100
AcDbLine
 10
471.144325831301
 20
417.0048319044652
 30
0.0
 11
482.8539583615639
 21
417.0048319044652
 31
0.0
  0
LINE
  5
660
330
1F
100
AcDbEntity
  8
防火材
  6
Continuous
370
    13
100
AcDbLine
 10
471.1443258313009
 20
414.3643862364204
 30
0.0
 11
482.8539583615639
 21
414.3643862364204
 31
0.0
  0
LINE
  5
661
330
1F
100
AcDbEntity
  8
防火材
  6
CENTER
 48
0.5
370
    13
100
AcDbLine
 10
473.3774141775362
 20
418.7657201255088
 30
0.0
 11
473.3549444137994
 21
411.4868657776858
 31
0.0
  0
LINE
  5
662
330
1F
100
AcDbEntity
  8
防火材
  6
Continuous
370
    13
100
AcDbLine
 10
473.0687505916866
 20
417.0048319044652
 30
0.0
 11
473.0633290777611
 21
413.9791932751587
 31
0.0
  0
LINE
  5
663
330
1F
100
AcDbEntity
  8
防火材
  6
Continuous
370
    13
100
AcDbLine
 10
473.0623963504285
 20
413.4586567815447
 30
0.0
 11
473.0615924655
 21
413.0100246602869
 31
0.0
  0
LINE
  5
664
330
1F
100
AcDbEntity
  8
防火材
  6
Continuous
370
    13
100
AcDbLine
 10
473.6649259080959
 20
417.0048319044652
 30
0.0
 11
473.6562103312779
 21
413.9791932751588
 31
0.0
  0
LINE
  5
665
330
1F
100
AcDbEntity
  8
防火材
  6
Continuous
370
    13
100
AcDbLine
 10
473.6547108872423
 20
413.4586567815447
 30
0.0
 11
473.6534136583329
 21
413.0083198753801
 31
0.0
  0
LINE
  5
666
330
1F
100
AcDbEntity
  8
防火材
  6
Continuous
370
    13
100
AcDbLine
 10
482.8539583615639
 20
417.0048319044652
 30
0.0
 11
482.8539583615639
 21
414.3643862364204
 31
0.0
  0
LINE
  5
667
330
1F
100
AcDbEntity
  8
防火材
  6
Continuous
370
    13
100
AcDbLine
 10
514.7751302024911
 20
383.5457553093677
 30
0.0
 11
514.7751302024911
 21
386.1862009774124
 31
0.0
  0
LINE
  5
668
330
1F
100
AcDbEntity
  8
防火材
  6
Continuous
370
    13
100
AcDbLine
 10
489.3754433114724
 20
383.5457553093677
 30
0.0
 11
489.3754433114724
 21
386.1862009774124
 31
0.0
  0
LINE
  5
669
330
1F
100
AcDbEntity
  8
防火材
  6
Continuous
370
    13
100
AcDbLine
 10
508.2536452525825
 20
383.5457553093677
 30
0.0
 11
508.2536452525825
 21
386.1862009774124
 31
0.0
  0
LINE
  5
66A
330
1F
100
AcDbEntity
  8
防火材
  6
Continuous
370
    13
100
AcDbLine
 10
489.3754433114724
 20
383.5457553093677
 30
0.0
 11
508.2536452525825
 21
383.5457553093677
 31
0.0
  0
LINE
  5
66B
330
1F
100
AcDbEntity
  8
防火材
  6
Continuous
370
    13
100
AcDbLine
 10
489.3754433114724
 20
386.1862009774124
 30
0.0
 11
508.2536452525825
 21
386.1862009774124
 31
0.0
  0
LINE
  5
66C
330
1F
100
AcDbEntity
  8
防火材
  6
Continuous
370
    13
100
AcDbLine
 10
476.0641122236718
 20
383.5457553093677
 30
0.0
 11
482.8539583615638
 21
383.5457553093677
 31
0.0
  0
LINE
  5
66D
330
1F
100
AcDbEntity
  8
防火材
  6
Continuous
370
    13
100
AcDbLine
 10
476.0641122236718
 20
386.1862009774124
 30
0.0
 11
482.8539583615638
 21
386.1862009774124
 31
0.0
  0
LINE
  5
66E
330
1F
100
AcDbEntity
  8
防火材
  6
Continuous
370
    13
100
AcDbLine
 10
482.8539583615638
 20
383.5457553093677
 30
0.0
 11
482.8539583615638
 21
386.1862009774124
 31
0.0
  0
LINE
  5
66F
330
1F
100
AcDbEntity
  8
防火材
  6
Continuous
370
    13
100
AcDbLine
 10
514.7751302024911
 20
383.5457553093677
 30
0.0
 11
514.7751302024911
 21
386.1862009774124
 31
0.0
  0
LINE
  5
670
330
1F
100
AcDbEntity
  8
防火材
  6
Continuous
370
    13
100
AcDbLine
 10
508.2536452525825
 20
383.5457553093677
 30
0.0
 11
508.2536452525825
 21
386.1862009774124
 31
0.0
  0
LINE
  5
671
330
1F
100
AcDbEntity
  8
防火材
  6
Continuous
370
    13
100
AcDbLine
 10
481.2943827257615
 20
417.0048319044652
 30
0.0
 11
483.9188841840146
 21
422.3799673095954
 31
0.0
  0
LINE
  5
672
330
1F
100
AcDbEntity
  8
防火材
  6
Continuous
370
    13
100
AcDbLine
 10
490.935018947275
 20
417.0048319044652
 30
0.0
 11
488.310517489022
 21
422.3799673095954
 31
0.0
  0
LINE
  5
673
330
1F
100
AcDbEntity
  8
防火材
  6
Continuous
370
    13
100
AcDbLine
 10
506.6940696167802
 20
417.0048319044652
 30
0.0
 11
509.3185710750331
 21
422.3799673095954
 31
0.0
  0
LINE
  5
674
330
1F
100
AcDbEntity
  8
防火材
  6
Continuous
370
    13
100
AcDbLine
 10
516.3347058382937
 20
417.0048319044652
 30
0.0
 11
513.7102043800407
 21
422.3799673095954
 31
0.0
  0
POLYLINE
  5
678
330
1F
100
AcDbEntity
  8
躯体・通線物他
  6
Continuous
370
    13
100
AcDb2dPolyline
 66
     1
 10
0.0
 20
0.0
 30
0.0
  0
VERTEX
  5
679
330
678
100
AcDbEntity
  8
躯体・通線物他
  6
Continuous
370
    13
100
AcDbVertex
100
AcDb2dVertex
 10
548.4233406094004
 20
391.0961656080018
 30
0.0
  0
VERTEX
  5
67A
330
678
100
AcDbEntity
  8
躯体・通線物他
  6
Continuous
370
    13
100
AcDbVertex
100
AcDb2dVertex
 10
540.4881414197687
 20
383.1605623481059
 30
0.0
  0
SEQEND
  5
67B
330
678
100
AcDbEntity
  8
躯体・通線物他
  6
Continuous
370
    13
  0
POLYLINE
  5
67C
330
1F
100
AcDbEntity
  8
躯体・通線物他
  6
Continuous
370
    13
100
AcDb2dPolyline
 66
     1
 10
0.0
 20
0.0
 30
0.0
  0
VERTEX
  5
67D
330
67C
100
AcDbEntity
  8
躯体・通線物他
  6
Continuous
370
    13
100
AcDbVertex
100
AcDb2dVertex
 10
547.3926724012141
 20
392.3940378029912
 30
0.0
  0
VERTEX
  5
67E
330
67C
100
AcDbEntity
  8
躯体・通線物他
  6
Continuous
370
    13
100
AcDbVertex
100
AcDb2dVertex
 10
538.1584552540507
 20
383.1605623481059
 30
0.0
  0
SEQEND
  5
67F
330
67C
100
AcDbEntity
  8
躯体・通線物他
  6
Continuous
370
    13
  0
POLYLINE
  5
680
330
1F
100
AcDbEntity
  8
躯体・通線物他
  6
Continuous
370
    13
100
AcDb2dPolyline
 66
     1
 10
0.0
 20
0.0
 30
0.0
  0
VERTEX
  5
681
330
680
100
AcDbEntity
  8
躯体・通線物他
  6
Continuous
370
    13
100
AcDbVertex
100
AcDb2dVertex
 10
546.229050192831
 20
393.5612293990624
 30
0.0
  0
VERTEX
  5
682
330
680
100
AcDbEntity
  8
躯体・通線物他
  6
Continuous
370
    13
100
AcDbVertex
100
AcDb2dVertex
 10
535.8291472107968
 20
383.1605623481059
 30
0.0
  0
SEQEND
  5
683
330
680
100
AcDbEntity
  8
躯体・通線物他
  6
Continuous
370
    13
  0
DIMENSION
  5
685
330
1F
100
AcDbEntity
  8
寸法
  6
Continuous
100
AcDbDimension
280
     0
  2
*D3
 10
533.5359443181464
 20
422.3799673095958
 30
0.0
 11
537.8700995779131
 21
420.246588896297
 31
0.0
 70
   160
  1
耐火パテ\P５０以上
 71
     5
 42
5.375135405130151
 73
     0
 74
     0
 75
     0
 53
90.0
  3
Standard
100
AcDbAlignedDimension
 13
528.2990548008572
 23
417.0048319044654
 33
0.0
 14
516.3991854517562
 24
422.3799673095955
 34
0.0
 50
90.0
100
AcDbRotatedDimension
1001
ACAD
1000
DSTYLE
1002
{
1070
    41
1040
2.0
1070
    42
1040
0.0
1070
    77
1070
     1
1070
   140
1040
2.0
1070
   147
1040
1.0
1070
   279
1070
     2
1070
   340
1005
11
1002
}
  0
DIMENSION
  5
686
330
1F
100
AcDbEntity
  8
寸法
  6
Continuous
100
AcDbDimension
280
     0
  2
*D4
 10
533.5359443181468
 20
389.4920323052453
 30
0.0
 11
537.1955696596519
 21
388.6469541086366
 31
0.0
 70
   160
  1
耐火パテ\P３０以上
 71
     5
 42
3.691024289094343
 73
     0
 74
     0
 75
     0
 53
90.0
  3
Standard
100
AcDbAlignedDimension
 13
528.2990548008569
 23
385.8010080161507
 33
0.0
 14
528.3101755625759
 24
389.4920323052451
 34
0.0
 50
90.0
100
AcDbRotatedDimension
1001
ACAD
1000
DSTYLE
1002
{
1070
    41
1040
2.0
1070
    42
1040
0.0
1070
    77
1070
     1
1070
   140
1040
2.0
1070
   147
1040
1.0
1070
   279
1070
     2
1070
   340
1005
11
1002
}
  0
MULTILEADER
  5
687
330
1F
100
AcDbEntity
  8
文字
  6
Continuous
160
               900
310
840300001F0000000C00000016000000000000C00C00000033000000000000000C00000013000000993A0000C400000026000000A8EB16386FF37B40FC196C3A82A47B40000000000000000000000000000000000000000000000000000000000000F03F000000000000F03F0000000000000000000000000000000010806B
310
70D130C6300000000004000000010000000000000000000840000000000000F03F0000000000000000000000000000F03F0000000000000000000000000000000000000000000000000000000001000000320000002DFF33FF200030FFB430B730C330AF30000039AA00000000000000000C00000033000000000000000C00
310
000010000000040000000C00000016000000000000C00C00000012000000000000000C00000013000000010000000C0000001400000001000000540000000700000003000000AD8482D5EB1C7E4062A42300D7467A400000000000000000444271D9C02C7E408E735022862A7A400000000000000000F4DFA4EE97147E4010
310
1FAFAD2C407A4000000000000000000C00000014000000010000000C00000013000000891300003C000000060000000200000050B213E2C1187E40B961E9D681437A400000000000000000F37BBE3CE8057D406280D2A0E89A7B4000000000000000000C00000013000000020000000C000000140000000100000054000000
310
0700000003000000315EE4B1662A7E404E0AF297366578400000000000000000C09C289AE92F7E4048E7D1513E457840000000000000000052A2DD9954207E40792BDA9BB261784000000000000000000C00000014000000010000000C000000130000008A1300003C00000006000000020000004200E1A55D257E40E41AE6
310
99746378400000000000000000F37BBE3CE8057D406280D2A0E89A7B4000000000000000000C00000013000000112700003C0000000600000002000000F37BBE3CE8057D406280D2A0E89A7B400000000000000000FD5262AD25007D406280D2A0E89A7B4000000000000000000C00000016000000000000C00C0000001200
310
0000000000000C00000017000000000000000C000000130000009A3A00003C0000000600000002000000341AD12012F87B406280D2A0E89A7B400000000000000000FD5262AD25007D406280D2A0E89A7B4000000000000000000C00000016000000000000C00C00000012000000000000000C00000017000000FFFFFFFF0C
310
0000003300000000000000
100
AcDbMLeader
270
     2
300
CONTEXT_DATA{
 40
1.0
 10
447.4144258277951
 20
441.6817939970697
 30
0.0
 41
3.0
140
2.0
145
0.09
174
     5
175
     5
176
     2
177
     0
290
     1
304
耐火パテ
 11
0.0
 21
0.0
 31
1.0
340
11
 12
463.9191985550678
 22
445.7420212697971
 32
0.0
 13
1.0
 23
0.0
 33
0.0
 42
0.0
 43
0.0
 44
0.0
 45
1.0
170
     1
 90
-1073741824
171
     3
172
     5
 91
-1073741824
141
0.0
 92
        0
291
     0
292
     0
173
     0
293
     0
142
0.0
143
0.0
294
     0
295
     0
296
     0
110
482.4196788773234
120
411.9822983427466
130
0.0
111
1.0
121
0.0
131
0.0
112
0.0
122
1.0
132
0.0
297
     0
302
LEADER{
290
     1
291
     1
 10
464.3691985550678
 20
441.6817939970697
 30
0.0
 11
-1.0
 21
0.0
 31
0.0
 90
        0
 40
0.36
304
LEADER_LINE{
 10
482.7970823692488
 20
418.6577475683815
 30
0.0
 91
        0
305
}
304
LEADER_LINE{
 10
482.9945317827623
 20
388.3277147483209
 30
0.0
 91
        1
305
}
271
     0
303
}
272
     9
273
     9
301
}
340
12E
 90
 33904128
170
     1
 91
-1056964608
341
14
171
    -2
290
     1
291
     1
 41
0.36
 42
2.0
172
     2
343
11
173
     5
 95
        5
174
     1
175
     2
 92
-1056964608
292
     0
 93
-1056964608
 10
1.0
 20
1.0
 30
1.0
 43
0.0
176
     0
293
     0
294
     0
178
     0
179
     3
 45
1.0
271
     0
272
     9
273
     9
295
     0
  0
LINE
  5
688
330
1F
100
AcDbEntity
  8
防火材
  6
Continuous
370
    13
100
AcDbLine
 10
475.67891926241
 20
385.8010080161508
 30
0.0
 11
475.67891926241
 21
383.160562348106
 31
0.0
  0
LINE
  5
689
330
1F
100
AcDbEntity
  8
防火材
  6
Continuous
370
    13
100
AcDbLine
 10
478.0030501025176
 20
383.160562348106
 30
0.0
 11
478.0030501025176
 21
383.5457553093677
 31
0.0
  0
LINE
  5
68A
330
1F
100
AcDbEntity
  8
防火材
  6
Continuous
370
    13
100
AcDbLine
 10
475.6789192624101
 20
383.1605623481059
 30
0.0
 11
478.0030501025176
 21
383.160562348106
 31
0.0
  0
LINE
  5
68B
330
1F
100
AcDbEntity
  8
防火材
  6
Continuous
370
    13
100
AcDbLine
 10
521.5649763403832
 20
383.5457553093677
 30
0.0
 11
514.7751302024911
 21
383.5457553093677
 31
0.0
  0
LINE
  5
68C
330
1F
100
AcDbEntity
  8
防火材
  6
Continuous
370
    13
100
AcDbLine
 10
521.5649763403832
 20
386.1862009774124
 30
0.0
 11
514.7751302024911
 21
386.1862009774124
 31
0.0
  0
POLYLINE
  5
68D
330
1F
100
AcDbEntity
  8
躯体・通線物他
  6
Continuous
370
    13
100
AcDb2dPolyline
 66
     1
 10
0.0
 20
0.0
 30
0.0
  0
VERTEX
  5
68E
330
68D
100
AcDbEntity
  8
躯体・通線物他
  6
Continuous
370
    13
100
AcDbVertex
100
AcDb2dVertex
 10
475.6789192624101
 20
389.6690759600567
 30
0.0
  0
VERTEX
  5
68F
330
68D
100
AcDbEntity
  8
躯体・通線物他
  6
Continuous
370
    13
100
AcDbVertex
100
AcDb2dVertex
 10
475.6789192624098
 20
402.9874609657616
 30
0.0
  0
SEQEND
  5
690
330
68D
100
AcDbEntity
  8
躯体・通線物他
  6
Continuous
370
    13
  0
POLYLINE
  5
691
330
1F
100
AcDbEntity
  8
躯体・通線物他
  6
Continuous
370
    13
100
AcDb2dPolyline
 66
     1
 10
0.0
 20
0.0
 30
0.0
  0
VERTEX
  5
692
330
691
100
AcDbEntity
  8
躯体・通線物他
  6
Continuous
370
    13
100
AcDbVertex
100
AcDb2dVertex
 10
475.6789192624101
 20
383.1605623481061
 30
0.0
  0
VERTEX
  5
693
330
691
100
AcDbEntity
  8
躯体・通線物他
  6
Continuous
370
    13
100
AcDbVertex
100
AcDb2dVertex
 10
475.6789192624101
 20
388.8986900375332
 30
0.0
  0
SEQEND
  5
694
330
691
100
AcDbEntity
  8
躯体・通線物他
  6
Continuous
370
    13
  0
LINE
  5
695
330
1F
100
AcDbEntity
  8
防火材
  6
Continuous
370
    13
100
AcDbLine
 10
476.0641122236718
 20
414.3643862364204
 30
0.0
 11
476.0641122236718
 21
383.5457553093677
 31
0.0
  0
LINE
  5
696
330
1F
100
AcDbEntity
  8
防火材
  6
Continuous
370
    13
100
AcDbLine
 10
473.3547884223026
 20
388.8986900375332
 30
0.0
 11
473.3547884223026
 21
389.283882998795
 31
0.0
  0
LINE
  5
697
330
1F
100
AcDbEntity
  8
防火材
  6
Continuous
370
    13
100
AcDbLine
 10
475.6789192624101
 20
388.8986900375332
 30
0.0
 11
473.3547884223026
 21
388.8986900375332
 31
0.0
  0
LINE
  5
698
330
1F
100
AcDbEntity
  8
防火材
  6
Continuous
370
    13
100
AcDbLine
 10
473.3547884223026
 20
389.283882998795
 30
0.0
 11
475.67891926241
 21
389.283882998795
 31
0.0
  0
LINE
  5
699
330
1F
100
AcDbEntity
  8
防火材
  6
Continuous
370
    13
100
AcDbLine
 10
473.3547884223026
 20
389.283882998795
 30
0.0
 11
473.3547884223026
 21
389.6690759600566
 31
0.0
  0
LINE
  5
69A
330
1F
100
AcDbEntity
  8
防火材
  6
Continuous
370
    13
100
AcDbLine
 10
476.0641122236718
 20
389.2838829987949
 30
0.0
 11
473.3547884223026
 21
389.283882998795
 31
0.0
  0
LINE
  5
69B
330
1F
100
AcDbEntity
  8
防火材
  6
Continuous
370
    13
100
AcDbLine
 10
473.3547884223026
 20
389.6690759600566
 30
0.0
 11
475.67891926241
 21
389.6690759600567
 31
0.0
  0
LINE
  5
69C
330
1F
100
AcDbEntity
  8
防火材
  6
Continuous
370
    13
100
AcDbLine
 10
475.6789192624098
 20
402.9874609657616
 30
0.0
 11
475.67891926241
 21
413.9791932751587
 31
0.0
  0
LINE
  5
69D
330
1F
100
AcDbEntity
  8
防火材
  6
Continuous
370
    13
100
AcDbLine
 10
471.1443258313009
 20
413.979193275159
 30
0.0
 11
471.1443258313009
 21
414.3643862364206
 31
0.0
  0
LINE
  5
69E
330
1F
100
AcDbEntity
  8
防火材
  6
Continuous
370
    13
100
AcDbLine
 10
471.1443258313009
 20
413.9791932751587
 30
0.0
 11
475.6789192624098
 21
413.9791932751587
 31
0.0
  0
LWPOLYLINE
  5
69F
330
1F
100
AcDbEntity
  8
防火材
  6
Continuous
370
    13
100
AcDbPolyline
 90
        4
 70
     1
 43
0.0
 10
472.7047667666858
 20
413.9791932751587
 10
474.0172958662616
 20
413.9791932751587
 10
474.0172958662616
 20
413.4586567815447
 10
472.7047667666858
 20
413.4586567815447
  0
LINE
  5
6A0
330
1F
100
AcDbEntity
  8
防火材
  6
Continuous
370
    13
100
AcDbLine
 10
473.0615924655
 20
413.0100246602869
 30
0.0
 11
473.6534136583328
 21
413.0083198753801
 31
0.0
  0
LWPOLYLINE
  5
6A1
330
1F
100
AcDbEntity
  8
防火材
  6
Continuous
370
    13
100
AcDbPolyline
 90
        4
 70
     1
 43
0.0
 10
472.7047667666858
 20
417.5253683980793
 10
474.0172958662616
 20
417.5253683980793
 10
474.0172958662616
 20
417.0048319044652
 10
472.7047667666858
 20
417.0048319044652
  0
LINE
  5
6A2
330
1F
100
AcDbEntity
  8
防火材
  6
Continuous
370
    13
100
AcDbLine
 10
472.971546193662
 20
417.0048319044652
 30
0.0
 11
472.971546193662
 21
417.5253683980793
 31
0.0
  0
LINE
  5
6A3
330
1F
100
AcDbEntity
  8
防火材
  6
Continuous
370
    13
100
AcDbLine
 10
473.7505164392854
 20
417.0048319044652
 30
0.0
 11
473.7505164392854
 21
417.5253683980793
 31
0.0
  0
LINE
  5
6A4
330
1F
100
AcDbEntity
  8
防火材
  6
Continuous
370
    13
100
AcDbLine
 10
472.971546193662
 20
413.4586567815447
 30
0.0
 11
472.971546193662
 21
413.9791932751587
 31
0.0
  0
LINE
  5
6A5
330
1F
100
AcDbEntity
  8
防火材
  6
Continuous
370
    13
100
AcDbLine
 10
473.7505164392854
 20
413.4586567815447
 30
0.0
 11
473.7505164392854
 21
413.9791932751587
 31
0.0
  0
LINE
  5
6A6
330
1F
100
AcDbEntity
  8
防火材
  6
Continuous
370
    13
100
AcDbLine
 10
526.4847627327541
 20
414.3643862364204
 30
0.0
 11
526.4847627327539
 21
417.0048319044652
 31
0.0
  0
LINE
  5
6A7
330
1F
100
AcDbEntity
  8
防火材
  6
CENTER
 48
0.5
370
    13
100
AcDbLine
 10
524.2516743865187
 20
418.7657201255088
 30
0.0
 11
524.2732150068502
 21
411.7878524544591
 31
0.0
  0
LINE
  5
6A8
330
1F
100
AcDbEntity
  8
防火材
  6
Continuous
370
    13
100
AcDbLine
 10
524.5603379723684
 20
417.0048319044652
 30
0.0
 11
524.5657594862938
 21
413.9791932751587
 31
0.0
  0
LINE
  5
6A9
330
1F
100
AcDbEntity
  8
防火材
  6
Continuous
370
    13
100
AcDbLine
 10
524.5666922136265
 20
413.4586567815447
 30
0.0
 11
524.5674960985549
 21
413.0100246602869
 31
0.0
  0
LINE
  5
6AA
330
1F
100
AcDbEntity
  8
防火材
  6
Continuous
370
    13
100
AcDbLine
 10
523.9641626559591
 20
417.0048319044652
 30
0.0
 11
523.972878232777
 21
413.9791932751588
 31
0.0
  0
LINE
  5
6AB
330
1F
100
AcDbEntity
  8
防火材
  6
Continuous
370
    13
100
AcDbLine
 10
523.9743776768126
 20
413.4586567815447
 30
0.0
 11
523.9756749057221
 21
413.0083198753801
 31
0.0
  0
LINE
  5
6AC
330
1F
100
AcDbEntity
  8
防火材
  6
Continuous
370
    13
100
AcDbLine
 10
521.950169301645
 20
385.8010080161508
 30
0.0
 11
521.950169301645
 21
383.160562348106
 31
0.0
  0
LINE
  5
6AD
330
1F
100
AcDbEntity
  8
防火材
  6
Continuous
370
    13
100
AcDbLine
 10
519.6260384615375
 20
383.160562348106
 30
0.0
 11
519.6260384615375
 21
383.5457553093677
 31
0.0
  0
LINE
  5
6AE
330
1F
100
AcDbEntity
  8
防火材
  6
Continuous
370
    13
100
AcDbLine
 10
521.9501693016448
 20
383.1605623481059
 30
0.0
 11
519.6260384615375
 21
383.160562348106
 31
0.0
  0
POLYLINE
  5
6AF
330
1F
100
AcDbEntity
  8
躯体・通線物他
  6
Continuous
370
    13
100
AcDb2dPolyline
 66
     1
 10
0.0
 20
0.0
 30
0.0
  0
VERTEX
  5
6B0
330
6AF
100
AcDbEntity
  8
躯体・通線物他
  6
Continuous
370
    13
100
AcDbVertex
100
AcDb2dVertex
 10
521.950169301645
 20
389.6690759600567
 30
0.0
  0
VERTEX
  5
6B1
330
6AF
100
AcDbEntity
  8
躯体・通線物他
  6
Continuous
370
    13
100
AcDbVertex
100
AcDb2dVertex
 10
521.9501693016451
 20
402.9874609657616
 30
0.0
  0
SEQEND
  5
6B2
330
6AF
100
AcDbEntity
  8
躯体・通線物他
  6
Continuous
370
    13
  0
POLYLINE
  5
6B3
330
1F
100
AcDbEntity
  8
躯体・通線物他
  6
Continuous
370
    13
100
AcDb2dPolyline
 66
     1
 10
0.0
 20
0.0
 30
0.0
  0
VERTEX
  5
6B4
330
6B3
100
AcDbEntity
  8
躯体・通線物他
  6
Continuous
370
    13
100
AcDbVertex
100
AcDb2dVertex
 10
521.950169301645
 20
383.1605623481061
 30
0.0
  0
VERTEX
  5
6B5
330
6B3
100
AcDbEntity
  8
躯体・通線物他
  6
Continuous
370
    13
100
AcDbVertex
100
AcDb2dVertex
 10
521.950169301645
 20
388.8986900375332
 30
0.0
  0
SEQEND
  5
6B6
330
6B3
100
AcDbEntity
  8
躯体・通線物他
  6
Continuous
370
    13
  0
LINE
  5
6B7
330
1F
100
AcDbEntity
  8
防火材
  6
Continuous
370
    13
100
AcDbLine
 10
524.2743001417523
 20
388.8986900375332
 30
0.0
 11
524.2743001417523
 21
389.283882998795
 31
0.0
  0
LINE
  5
6B8
330
1F
100
AcDbEntity
  8
防火材
  6
Continuous
370
    13
100
AcDbLine
 10
521.950169301645
 20
388.8986900375332
 30
0.0
 11
524.2743001417523
 21
388.8986900375332
 31
0.0
  0
LINE
  5
6B9
330
1F
100
AcDbEntity
  8
防火材
  6
Continuous
370
    13
100
AcDbLine
 10
524.2743001417523
 20
389.283882998795
 30
0.0
 11
521.950169301645
 21
389.283882998795
 31
0.0
  0
LINE
  5
6BA
330
1F
100
AcDbEntity
  8
防火材
  6
Continuous
370
    13
100
AcDbLine
 10
524.2743001417523
 20
389.283882998795
 30
0.0
 11
524.2743001417523
 21
389.6690759600566
 31
0.0
  0
LINE
  5
6BB
330
1F
100
AcDbEntity
  8
防火材
  6
Continuous
370
    13
100
AcDbLine
 10
521.5649763403832
 20
389.2838829987949
 30
0.0
 11
524.2743001417523
 21
389.283882998795
 31
0.0
  0
LINE
  5
6BC
330
1F
100
AcDbEntity
  8
防火材
  6
Continuous
370
    13
100
AcDbLine
 10
524.2743001417523
 20
389.6690759600566
 30
0.0
 11
521.950169301645
 21
389.6690759600567
 31
0.0
  0
LINE
  5
6BD
330
1F
100
AcDbEntity
  8
防火材
  6
Continuous
370
    13
100
AcDbLine
 10
521.9501693016451
 20
402.9874609657616
 30
0.0
 11
521.950169301645
 21
413.9791932751587
 31
0.0
  0
LINE
  5
6BE
330
1F
100
AcDbEntity
  8
防火材
  6
Continuous
370
    13
100
AcDbLine
 10
526.4847627327541
 20
413.979193275159
 30
0.0
 11
526.4847627327541
 21
414.3643862364206
 31
0.0
  0
LINE
  5
6BF
330
1F
100
AcDbEntity
  8
防火材
  6
Continuous
370
    13
100
AcDbLine
 10
526.4847627327541
 20
413.9791932751587
 30
0.0
 11
521.9501693016451
 21
413.9791932751587
 31
0.0
  0
LWPOLYLINE
  5
6C0
330
1F
100
AcDbEntity
  8
防火材
  6
Continuous
370
    13
100
AcDbPolyline
 90
        4
 70
     1
 43
0.0
 10
524.9243217973692
 20
413.9791932751587
 10
523.6117926977933
 20
413.9791932751587
 10
523.6117926977933
 20
413.4586567815447
 10
524.9243217973692
 20
413.4586567815447
  0
LINE
  5
6C1
330
1F
100
AcDbEntity
  8
防火材
  6
Continuous
370
    13
100
AcDbLine
 10
524.5674960985549
 20
413.0100246602869
 30
0.0
 11
523.9756749057221
 21
413.0083198753801
 31
0.0
  0
LWPOLYLINE
  5
6C2
330
1F
100
AcDbEntity
  8
防火材
  6
Continuous
370
    13
100
AcDbPolyline
 90
        4
 70
     1
 43
0.0
 10
524.9243217973692
 20
417.5253683980793
 10
523.6117926977933
 20
417.5253683980793
 10
523.6117926977933
 20
417.0048319044652
 10
524.9243217973692
 20
417.0048319044652
  0
LINE
  5
6C3
330
1F
100
AcDbEntity
  8
防火材
  6
Continuous
370
    13
100
AcDbLine
 10
524.6575423703929
 20
417.0048319044652
 30
0.0
 11
524.6575423703929
 21
417.5253683980793
 31
0.0
  0
LINE
  5
6C4
330
1F
100
AcDbEntity
  8
防火材
  6
Continuous
370
    13
100
AcDbLine
 10
523.8785721247695
 20
417.0048319044652
 30
0.0
 11
523.8785721247695
 21
417.5253683980793
 31
0.0
  0
LINE
  5
6C5
330
1F
100
AcDbEntity
  8
防火材
  6
Continuous
370
    13
100
AcDbLine
 10
524.6575423703929
 20
413.4586567815447
 30
0.0
 11
524.6575423703929
 21
413.9791932751587
 31
0.0
  0
LINE
  5
6C6
330
1F
100
AcDbEntity
  8
防火材
  6
Continuous
370
    13
100
AcDbLine
 10
523.8785721247695
 20
413.4586567815447
 30
0.0
 11
523.8785721247695
 21
413.9791932751587
 31
0.0
  0
LINE
  5
6C7
330
1F
100
AcDbEntity
  8
防火材
  6
Continuous
370
    13
100
AcDbLine
 10
521.5649763403832
 20
414.3643862364204
 30
0.0
 11
521.5649763403832
 21
383.5457553093677
 31
0.0
  0
LINE
  5
6C8
330
1F
100
AcDbEntity
  8
防火材
  6
Continuous
370
    13
100
AcDbLine
 10
481.2943827257615
 20
386.1862009774124
 30
0.0
 11
483.9188841840146
 21
389.4920323052449
 31
0.0
  0
LINE
  5
6C9
330
1F
100
AcDbEntity
  8
防火材
  6
Continuous
370
    13
100
AcDbLine
 10
490.935018947275
 20
386.1862009774124
 30
0.0
 11
488.310517489022
 21
389.4920323052449
 31
0.0
  0
LINE
  5
6CA
330
1F
100
AcDbEntity
  8
防火材
  6
Continuous
370
    13
100
AcDbLine
 10
506.6940696167802
 20
386.1862009774124
 30
0.0
 11
509.3185710750331
 21
389.4920323052449
 31
0.0
  0
LINE
  5
6CB
330
1F
100
AcDbEntity
  8
防火材
  6
Continuous
370
    13
100
AcDbLine
 10
516.3347058382937
 20
386.1862009774124
 30
0.0
 11
513.7102043800407
 21
389.4920323052449
 31
0.0
  0
MULTILEADER
  5
6CC
330
1F
100
AcDbEntity
  8
文字
  6
Continuous
160
               916
310
940300001A0000000C00000016000000000000C00C00000033000000000000000C00000013000000993A0000D00000002600000000A4325473B17A40908B55923D2D7B40000000000000000000000000000000000000000000000000000000000000F03F000000000000F03F00000000000000000000000000000000FA569A
310
5B2875DC30EB30C830FB30CA30C330C830000000000A000000010000000000000000000840000000000000F03F0000000000000000000000000000F03F0000000000000000000000000000000000000000000000000000000001000000320000002DFF33FF200030FFB430B730C330AF30000000000000000000000000C400
310
000026000000D2E949B1E7037C40908B55923DD77A40000000000000000000000000000000000000000000000000000000000000F03F000000000000F03F000000000000000000000000000000002DFF16FFE54E0A4E0000000004000000010000000000000000000840000000000000F03F00000000000000000000000000
310
00F03F0000000000000000000000000000000000000000000000000000000001000000320000002DFF33FF200030FFB430B730C330AF30000039AA00000000000000000C00000033000000000000000C00000010000000040000000C00000016000000000000C00C00000012000000000000000C0000001300000001000000
310
0C0000001400000001000000540000000700000003000000746EA988F6857D40D27B6445F6327A4000000000000000005C667F34FA957D404CBF53B0BF167A400000000000000000FB7CB6ADAD7D7D409BABF43C3E2C7A4000000000000000000C00000014000000010000000C00000013000000891300003C000000060000
310
0002000000B7F52F1BD2817D40B7932C419A2F7A40000000000000000034D76587A6017D40F6F1BBF8A3CD7A4000000000000000000C00000013000000122700003C000000060000000200000034D76587A6017D40F6F1BBF8A3CD7A4000000000000000003EAE09F8E3FB7C40F6F1BBF8A3CD7A4000000000000000000C00
310
000016000000000000C00C00000012000000000000000C00000017000000000000000C000000130000009A3A00003C00000006000000020000005D18049A8AB87A40F6F1BBF8A3CD7A4000000000000000003DAE09F8E3FB7C40F6F1BBF8A3CD7A4000000000000000000C00000016000000000000C00C0000001200000000
310
0000000C00000017000000FFFFFFFF0C0000003300000000000000
100
AcDbMLeader
270
     2
300
CONTEXT_DATA{
 40
1.0
 10
427.4438382873504
 20
428.8525321332557
 30
0.0
 41
3.0
140
2.0
145
0.09
174
     5
175
     5
176
     2
177
     0
290
     1
304
{\fMS PGothic|b0|i0|c128|p50;固定用ボルト・ナット\PＭ６以上}
 11
0.0
 21
0.0
 31
1.0
340
11
 12
463.6531564691686
 22
438.475259405983
 32
0.0
 13
1.0
 23
0.0
 33
0.0
 42
0.0
 43
0.0
 44
0.0
 45
1.0
170
     1
 90
-1073741824
171
     3
172
     5
 91
-1073741824
141
0.0
 92
        0
291
     0
292
     0
173
     0
293
     0
142
0.0
143
0.0
294
     0
295
     0
296
     0
110
422.381483008383
120
413.2696911162113
130
0.0
111
1.0
121
0.0
131
0.0
112
0.0
122
1.0
132
0.0
297
     0
302
LEADER{
290
     1
291
     1
 10
464.1031564691686
 20
428.8525321332557
 30
0.0
 11
-1.0
 21
0.0
 31
0.0
 90
        1
 40
0.36
304
LEADER_LINE{
 10
473.3735852219158
 20
417.4217990180375
 30
0.0
 91
        0
305
}
271
     0
303
}
272
     9
273
     9
301
}
340
12E
 90
 33904128
170
     1
 91
-1056964608
341
14
171
    -2
290
     1
291
     1
 41
0.36
 42
2.0
172
     2
343
11
173
     5
 95
        5
174
     1
175
     0
 92
-1056964608
292
     0
 93
-1056964608
 10
1.0
 20
1.0
 30
1.0
 43
0.0
176
     0
293
     0
294
     0
178
     0
179
     3
 45
1.0
271
     0
272
     9
273
     9
295
     0
  0
MULTILEADER
  5
6CD
330
1F
100
AcDbEntity
  8
文字
  6
Continuous
160
              1276
310
FC0400001C0000000C00000016000000000000C00C00000033000000000000000C00000013000000993A0000C800000026000000D9A689BB9D627B4014A6217FFF127A40000000000000000000000000000000000000000000000000000000000000F03F000000000000F03F00000000000000000000000000000000FC92FD
310
88B930EA30FC30D6300000000006000000010000000000000000000840000000000000F03F0000000000000000000000000000F03F0000000000000000000000000000000000000000000000000000000001000000320000002DFF33FF200030FFB430B730C330AF300000000000002E0000000000C0000000260000003E8C
310
431BE56C7B40887767965CBB7940000000000000000000000000000000000000000000000000000000000000F03F000000000000F03F000000000000000000000000000000009A53553011FF000003000000010000000000000000000840000000000000F03F0000000000000000000000000000F03F000000000000000000
310
0000000000000000000000000000000000000001000000320000002DFF33FF200030FFB430B730C330AF30000000000000000000000000B4000000260000003E8C431BE5177C40887767965CBB7940000000000000000000000000000000000000000000000000000000000000F03F000000000000F03F0000000000000000
310
00000000000000002E00000001000000010000000000000000000840000000000000F03F0000000000000000000000000000F03F00000000000000000000000000000000000000000000000000000000010000002200000041007200690061006C0000000000000000000000C0000000260000007C32B875862A7C40887767
310
965CBB7940000000000000000000000000000000000000000000000000000000000000F03F000000000000F03F0000000000000000000000000000000016FFE54E0A4E000003000000010000000000000000000840000000000000F03F0000000000000000000000000000F03F000000000000000000000000000000000000
310
0000000000000000000001000000320000002DFF33FF200030FFB430B730C330AF3000000000000039AA000000000C00000033000000000000000C00000010000000040000000C00000016000000000000C00C00000012000000000000000C00000013000000010000000C0000001400000001000000540000000700000003
310
000000F1ED5AE68F9A7D4024189D2D146F794000000000000000003810698A3DB67D40BC9BC11F285E794000000000000000001990BAEA91967D406952A8F72F65794000000000000000000C00000014000000010000000C00000013000000891300003C000000060000000200000005BF8AE890987D4046B5A212226A7940
310
0000000000000000243731C016E77C40EFDDCDFCC2B1794000000000000000000C00000013000000122700003C0000000600000002000000243731C016E77C40EFDDCDFCC2B1794000000000000000002E0ED53054E17C40EFDDCDFCC2B1794000000000000000000C00000016000000000000C00C00000012000000000000
310
000C00000017000000000000000C000000130000009A3A00003C0000000600000002000000C24915EA57657B40EFDDCDFCC2B1794000000000000000002E0ED53054E17C40EFDDCDFCC2B1794000000000000000000C00000016000000000000C00C00000012000000000000000C00000017000000FFFFFFFF0C0000003300
310
000000000000
100
AcDbMLeader
270
     2
300
CONTEXT_DATA{
 40
1.0
 10
438.2439634734694
 20
411.1101043740918
 30
0.0
 41
3.0
140
2.0
145
0.09
174
     5
175
     5
176
     2
177
     0
290
     1
304
鋼製スリーブ\P厚さ１.６以上
 11
0.0
 21
0.0
 31
1.0
340
11
 12
461.9930543825603
 22
420.8862407377281
 32
0.0
 13
1.0
 23
0.0
 33
0.0
 42
0.0
 43
0.0
 44
0.0
 45
1.0
170
     1
 90
-1073741824
171
     3
172
     5
 91
-1073741824
141
0.0
 92
        0
291
     0
292
     0
173
     0
293
     0
142
0.0
143
0.0
294
     0
295
     0
296
     0
110
416.1047390968644
120
401.7326880083249
130
0.0
111
1.0
121
0.0
131
0.0
112
0.0
122
1.0
132
0.0
297
     0
302
LEADER{
290
     1
291
     1
 10
462.4430543825603
 20
411.1101043740918
 30
0.0
 11
-1.0
 21
0.0
 31
0.0
 90
        1
 40
0.36
304
LEADER_LINE{
 10
475.3900245765721
 20
405.8847959101511
 30
0.0
 91
        0
305
}
271
     0
303
}
272
     9
273
     9
301
}
340
12E
 90
 33904128
170
     1
 91
-1056964608
341
14
171
    -2
290
     1
291
     1
 41
0.36
 42
2.0
172
     2
343
11
173
     5
 95
        5
174
     1
175
     0
 92
-1056964608
292
     0
 93
-1056964608
 10
1.0
 20
1.0
 30
1.0
 43
0.0
176
     0
293
     0
294
     0
178
     0
179
     3
 45
1.0
271
     0
272
     9
273
     9
295
     0
  0
DIMENSION
  5
6CE
330
1F
100
AcDbEntity
  8
寸法
  6
Continuous
100
AcDbDimension
280
     0
  2
*D5
 10
564.8835123226688
 20
414.3643862364207
 30
0.0
 11
570.1932703017701
 21
398.4229443636743
 31
0.0
 70
   160
  1
{\fMS PGothic|b0|i0|c128|p50;鋼製スリーブ高さ\P２００以上}
 71
     5
 42
31.3951307525735
 73
     0
 74
     0
 75
     0
 53
90.0
  3
Standard
100
AcDbAlignedDimension
 13
559.8798637413985
 23
382.9692554838471
 33
0.0
 14
528.7751302024912
 24
414.3643862364204
 34
0.0
 50
90.0
100
AcDbRotatedDimension
1001
ACAD
1000
DSTYLE
1002
{
1070
    41
1040
2.0
1070
    42
1040
0.0
1070
    77
1070
     1
1070
   140
1040
3.0
1070
   147
1040
1.0
1070
   279
1070
     2
1002
}
  0
MULTILEADER
  5
6CF
330
1F
100
AcDbEntity
  8
文字
  6
Continuous
160
               916
310
940300001A0000000C00000016000000000000C00C00000033000000000000000C00000013000000993A0000CC000000260000006A6E096BAC547B404BDA1938A7A87740000000000000000000000000000000000000000000000000000000000000F03F000000000000F03F00000000000000000000000000000000513044
310
307891AB30EB30B730A630E0307F67000009000000010000000000000000000840000000000000F03F0000000000000000000000000000F03F0000000000000000000000000000000000000000000000000000000001000000320000002DFF33FF200030FFB430B730C330AF30000000000000000000000000C80000002600
310
00003CB420C820447C40BFAB5F4F04517740000000000000000000000000000000000000000000000000000000000000F03F000000000000F03F000000000000000000000000000000009A53553012FF15FFE54E0A4E0000000006000000010000000000000000000840000000000000F03F00000000000000000000000000
310
00F03F0000000000000000000000000000000000000000000000000000000001000000320000002DFF33FF200030FFB430B730C330AF300000000000002000000000000C00000033000000000000000C00000010000000040000000C00000016000000000000C00C00000012000000000000000C0000001300000001000000
310
0C0000001400000001000000540000000700000003000000489AFE99E1E57D40DAD0A55D64DD774000000000000000000E18643558F77D40A455EB69BBF877400000000000000000BDEEAB37B1EF7D40ACDF20C434D9774000000000000000000C00000014000000010000000C00000013000000891300003C000000060000
310
00020000008344D568C9EA7D404358E3904CDB77400000000000000000E4B89912B1AB7D402612C6B56A47774000000000000000000C00000013000000122700003C0000000600000002000000E4B89912B1AB7D402612C6B56A4777400000000000000000EE8F3D83EEA57D402612C6B56A47774000000000000000000C00
310
000016000000000000C00C00000012000000000000000C00000017000000000000000C000000130000009A3A00003C00000006000000020000000DFA3725955C7B402612C6B56A4777400000000000000000ED8F3D83EEA57D402612C6B56A47774000000000000000000C00000016000000000000C00C0000001200000000
310
0000000C00000017000000FFFFFFFF0C0000003300000000000000
100
AcDbMLeader
270
     2
300
CONTEXT_DATA{
 40
1.0
 10
437.6964124476044
 20
372.4635522591729
 30
0.0
 41
3.0
140
2.0
145
0.09
174
     5
175
     5
176
     2
177
     0
290
     1
304
けい酸カルシウム板\P厚さ２５以上
 11
0.0
 21
0.0
 31
1.0
340
11
 12
474.2807306294225
 22
382.120370440991
 32
0.0
 13
1.0
 23
0.0
 33
0.0
 42
0.0
 43
0.0
 44
0.0
 45
1.0
170
     1
 90
-1073741824
171
     3
172
     5
 91
-1073741824
141
0.0
 92
        0
291
     0
292
     0
173
     0
293
     0
142
0.0
143
0.0
294
     0
295
     0
296
     0
110
428.3924153437266
120
363.086135893406
130
0.0
111
1.0
121
0.0
131
0.0
112
0.0
122
1.0
132
0.0
297
     0
302
LEADER{
290
     1
291
     1
 10
474.7307306294226
 20
372.4635522591729
 30
0.0
 11
-1.0
 21
0.0
 31
0.0
 90
        1
 40
0.36
304
LEADER_LINE{
 10
479.4590352926178
 20
383.5457553093677
 30
0.0
 91
        0
305
}
271
     0
303
}
272
     9
273
     9
301
}
340
12E
 90
 33904128
170
     1
 91
-1056964608
341
14
171
    -2
290
     1
291
     1
 41
0.36
 42
2.0
172
     2
343
11
173
     5
 95
        5
174
     1
175
     0
 92
-1056964608
292
     0
 93
-1056964608
 10
1.0
 20
1.0
 30
1.0
 43
0.0
176
     0
293
     0
294
     0
178
     0
179
     3
 45
1.0
271
     0
272
     9
273
     9
295
     0
  0
LINE
  5
6D0
330
1F
100
AcDbEntity
  8
図面枠
  6
Continuous
100
AcDbLine
 10
421.2281220951236
 20
357.0002174379407
 30
0.0
 11
612.4970079684617
 21
357.0002174379407
 31
0.0
  0
LINE
  5
6D1
330
1F
100
AcDbEntity
  8
図面枠
  6
Continuous
100
AcDbLine
 10
421.2281220951236
 20
357.0002174379407
 30
0.0
 11
421.2281220951238
 21
256.114538727258
 31
0.0
  0
LINE
  5
6D2
330
1F
100
AcDbEntity
  8
図面枠
  6
Continuous
100
AcDbLine
 10
612.4970079684617
 20
351.6904448742206
 30
0.0
 11
421.2281220951236
 21
351.6904448742206
 31
0.0
  0
LINE
  5
6D3
330
1F
100
AcDbEntity
  8
図面枠
  6
Continuous
100
AcDbLine
 10
612.4970079684617
 20
335.7611271830603
 30
0.0
 11
421.2281220951236
 21
335.7611271830603
 31
0.0
  0
LINE
  5
6D5
330
1F
100
AcDbEntity
  8
図面枠
  6
Continuous
100
AcDbLine
 10
612.4970079684617
 20
314.5220369281795
 30
0.0
 11
421.2281220951235
 21
314.5220369281795
 31
0.0
  0
LINE
  5
6D6
330
1F
100
AcDbEntity
  8
図面枠
  6
Continuous
100
AcDbLine
 10
612.4970079684617
 20
256.114538727258
 30
0.0
 11
421.2281220951235
 21
256.114538727258
 31
0.0
  0
MTEXT
  5
6D7
330
1F
100
AcDbEntity
  8
文字
  6
Continuous
100
AcDbMText
 10
426.3940099111245
 20
350.0943531516508
 30
0.0
 40
2.0
 41
65.14525672343133
 46
0.0
 71
     1
 72
     5
  1
国土交通大臣認定番号
 73
     1
 44
0.75
101
Embedded Object
 70
     1
 10
1.0
 20
0.0
 30
0.0
 11
426.3940099111245
 21
350.0943531516508
 31
0.0
 40
65.14525672343133
 41
0.0
 42
28.64772727272728
 43
2.625
 71
     2
 72
     1
 44
65.14525672343133
 45
0.8849620939533352
 73
     0
 74
     0
 46
3.808148155918591
  0
MTEXT
  5
6D8
330
1F
100
AcDbEntity
  8
文字
  6
Continuous
100
AcDbMText
 10
426.3940099111245
 20
334.1650354604905
 30
0.0
 40
2.0
 41
30.73155332927162
 46
0.0
 71
     1
 72
     5
  1
開口部
 73
     1
 44
0.75
101
Embedded Object
 70
     1
 10
1.0
 20
0.0
 30
0.0
 11
426.3940099111245
 21
334.1650354604905
 31
0.0
 40
30.73155332927162
 41
0.0
 42
8.284090909090908
 43
2.613636363636363
 71
     2
 72
     1
 44
30.73155332927162
 45
0.8849620939533352
 73
     0
 74
     0
 46
2.580461047574065
  0
MTEXT
  5
6D9
330
1F
100
AcDbEntity
  8
文字
  6
Continuous
100
AcDbMText
 10
426.3940099111245
 20
323.5454903330504
 30
0.0
 40
2.0
 41
30.73155332927162
 46
0.0
 71
     1
 72
     5
  1
占積率
 73
     1
 44
0.75
101
Embedded Object
 70
     1
 10
1.0
 20
0.0
 30
0.0
 11
426.3940099111245
 21
323.5454903330504
 31
0.0
 40
30.73155332927162
 41
0.0
 42
8.090909090909091
 43
2.647727272727272
 71
     2
 72
     1
 44
30.73155332927162
 45
0.8849620939533352
 73
     0
 74
     0
 46
2.580461047574065
  0
LINE
  5
6DA
330
1F
100
AcDbEntity
  8
図面枠
  6
Continuous
100
AcDbLine
 10
453.8818846050973
 20
335.7611271830603
 30
0.0
 11
453.8818846050973
 21
330.4513546193402
 31
0.0
  0
MTEXT
  5
6DB
330
1F
100
AcDbEntity
  8
文字
  6
Continuous
100
AcDbMText
 10
459.0477724210982
 20
334.1650354604905
 30
0.0
 40
2.0
 41
30.73155332927162
 46
0.0
 71
     1
 72
     5
  1
形状（開口サイズ）
 73
     1
 44
0.75
101
Embedded Object
 70
     1
 10
1.0
 20
0.0
 30
0.0
 11
459.0477724210982
 21
334.1650354604905
 31
0.0
 40
30.73155332927162
 41
0.0
 42
21.92045454545455
 43
2.71590909090909
 71
     2
 72
     1
 44
30.73155332927162
 45
0.8849620939533352
 73
     0
 74
     0
 46
2.580461047574065
  0
LINE
  5
6DC
330
1F
100
AcDbEntity
  8
図面枠
  6
Continuous
100
AcDbLine
 10
453.8818846050973
 20
319.8318094918999
 30
0.0
 11
453.8818846050973
 21
314.5220369281795
 31
0.0
  0
MTEXT
  5
6DD
330
1F
100
AcDbEntity
  8
文字
  6
Continuous
100
AcDbMText
 10
426.3940099111245
 20
312.9259452056098
 30
0.0
 40
2.0
 41
30.73155332927162
 46
0.0
 71
     1
 72
     5
  1
施工方法
 73
     1
 44
0.75
101
Embedded Object
 70
     1
 10
1.0
 20
0.0
 30
0.0
 11
426.3940099111245
 21
312.9259452056098
 31
0.0
 40
30.73155332927162
 41
0.0
 42
11.31818181818182
 43
2.636363636363636
 71
     2
 72
     1
 44
30.73155332927162
 45
0.8849620939533352
 73
     0
 74
     0
 46
2.580461047574065
  0
LINE
  5
6DE
330
1F
100
AcDbEntity
  8
図面枠
  6
Continuous
100
AcDbLine
 10
512.9491843688271
 20
357.0002174379407
 30
0.0
 11
512.9491843688271
 21
256.114538727258
 31
0.0
  0
LINE
  5
6DF
330
1F
100
AcDbEntity
  8
図面枠
  6
Continuous
100
AcDbLine
 10
543.1405383441206
 20
357.0002174379407
 30
0.0
 11
421.2281220951236
 21
357.0002174379407
 31
0.0
  0
MTEXT
  5
6E0
330
1F
100
AcDbEntity
  8
文字
  6
Continuous
100
AcDbMText
 10
478.117185324922
 20
355.3625239193686
 30
0.0
 40
2.0
 41
30.73155332927162
 46
0.0
 71
     1
 72
     5
  1
項目
 73
     1
 44
0.75
101
Embedded Object
 70
     1
 10
1.0
 20
0.0
 30
0.0
 11
478.117185324922
 21
355.3625239193686
 31
0.0
 40
30.73155332927162
 41
0.0
 42
5.056818181818181
 43
2.522727272727272
 71
     2
 72
     1
 44
30.73155332927162
 45
0.8849620939533352
 73
     0
 74
     0
 46
2.580461047574065
  0
MTEXT
  5
6E1
330
1F
100
AcDbEntity
  8
文字
  6
Continuous
100
AcDbMText
 10
516.2189988161972
 20
350.0943531516508
 30
0.0
 40
2.0
 41
30.73155332927162
 46
0.0
 71
     1
 72
     5
  1
{\fMS PGothic|b0|i0|c128|p50;ＰＳ０６０ＦＬ－９０５５}
 73
     1
 44
0.75
101
Embedded Object
 70
     1
 10
1.0
 20
0.0
 30
0.0
 11
516.2189988161972
 21
350.0943531516508
 31
0.0
 40
30.73155332927162
 41
0.0
 42
24.20454545454545
 43
2.011363636363636
 71
     2
 72
     1
 44
30.73155332927162
 45
0.8849620939533352
 73
     0
 74
     0
 46
2.580461047574065
  0
MTEXT
  5
6E2
330
1F
100
AcDbEntity
  8
文字
  6
Continuous
100
AcDbMText
 10
516.2189988161972
 20
334.1650354604905
 30
0.0
 40
2.0
 41
30.73155332927162
 46
0.0
 71
     1
 72
     5
  1
矩形（０.６{\fMS PGothic|b0|i0|c128|p50;㎡}以下）
 73
     1
 44
0.75
101
Embedded Object
 70
     1
 10
1.0
 20
0.0
 30
0.0
 11
516.2189988161972
 21
334.1650354604905
 31
0.0
 40
30.73155332927162
 41
0.0
 42
21.56035284633512
 43
2.693181818181818
 71
     2
 72
     1
 44
30.73155332927162
 45
0.8849620939533352
 73
     0
 74
     0
 46
2.580461047574065
  0
LINE
  5
6E3
330
1F
100
AcDbEntity
  8
図面枠
  6
Continuous
100
AcDbLine
 10
612.4970079684617
 20
357.0002174379407
 30
0.0
 11
612.4970079684618
 21
256.114538727258
 31
0.0
  0
MTEXT
  5
6E4
330
1F
100
AcDbEntity
  8
文字
  6
Continuous
100
AcDbMText
 10
560.1268721966898
 20
355.3625239193686
 30
0.0
 40
2.0
 41
30.73155332927162
 46
0.0
 71
     1
 72
     5
  1
仕様
 73
     1
 44
0.75
101
Embedded Object
 70
     1
 10
1.0
 20
0.0
 30
0.0
 11
560.1268721966898
 21
355.3625239193686
 31
0.0
 40
30.73155332927162
 41
0.0
 42
5.556818181818181
 43
2.625
 71
     2
 72
     1
 44
30.73155332927162
 45
0.8849620939533352
 73
     0
 74
     0
 46
2.580461047574065
  0
LINE
  5
6E5
330
1F
100
AcDbEntity
  8
図面枠
  6
Continuous
100
AcDbLine
 10
612.4970079684617
 20
346.3806723105005
 30
0.0
 11
421.2281220951236
 21
346.3806723105005
 31
0.0
  0
MTEXT
  5
6E6
330
1F
100
AcDbEntity
  8
文字
  6
Continuous
100
AcDbMText
 10
426.3940099111245
 20
344.7845805879307
 30
0.0
 40
2.0
 41
30.73155332927162
 46
0.0
 71
     1
 72
     5
  1
貫通する床の構造等
 73
     1
 44
0.75
101
Embedded Object
 70
     1
 10
1.0
 20
0.0
 30
0.0
 11
426.3940099111245
 21
344.7845805879307
 31
0.0
 40
30.73155332927162
 41
0.0
 42
25.26136363636364
 43
2.659090909090909
 71
     2
 72
     1
 44
30.73155332927162
 45
0.8849620939533352
 73
     0
 74
     0
 46
2.580461047574065
  0
MTEXT
  5
6E7
330
1F
100
AcDbEntity
  8
文字
  6
Continuous
100
AcDbMText
 10
516.2189988161972
 20
344.7845805879307
 30
0.0
 40
2.0
 41
76.90949745212527
 46
0.0
 71
     1
 72
     5
  1
{\fMS PGothic|b0|i0|c128|p50;ＲＣ床　１００以上\P　\fMS PGothic|b0|i0|c0|p50;※\fMS PGothic|b0|i0|c128|p50;鋼製スリーブ厚さ１}.{\fMS PGothic|b0|i0|c128|p50;６以上要設置（高さ２００以上）}
 73
     1
 44
0.75
101
Embedded Object
 70
     1
 10
1.0
 20
0.0
 30
0.0
 11
516.2189988161972
 21
344.7845805879307
 31
0.0
 40
76.90949745212527
 41
0.0
 42
64.54898920997147
 43
5.551136363636363
 71
     2
 72
     1
 44
76.90949745212527
 45
0.8849620939533352
 73
     0
 74
     0
 46
8.402844884097678
  0
MTEXT
  5
6E8
330
1F
100
AcDbEntity
  8
文字
  6
Continuous
100
AcDbMText
 10
516.2905596835114
 20
323.5454903330504
 30
0.0
 40
2.0
 41
30.73155332927162
 46
0.0
 71
     1
 72
     5
  1
１５.６％以下
 73
     1
 44
0.75
101
Embedded Object
 70
     1
 10
1.0
 20
0.0
 30
0.0
 11
516.2905596835114
 21
323.5454903330504
 31
0.0
 40
30.73155332927162
 41
0.0
 42
14.81035284633511
 43
2.352272727272727
 71
     2
 72
     1
 44
30.73155332927162
 45
0.8849620939533352
 73
     0
 74
     0
 46
2.580461047574065
  0
LINE
  5
6E9
330
1F
100
AcDbEntity
  8
図面枠
  6
Continuous
100
AcDbLine
 10
612.4970079684617
 20
319.8318094918999
 30
0.0
 11
421.2281220951236
 21
319.8318094918999
 31
0.0
  0
MTEXT
  5
6EA
330
1F
100
AcDbEntity
  8
文字
  6
Continuous
100
AcDbMText
 10
516.048432244013
 20
318.2357177693301
 30
0.0
 40
2.0
 41
60.7835669328564
 46
0.0
 71
     1
 72
     5
  1
{\fMS PGothic|b0|i0|c128|p50;３２５㎟以下（６００Ｖ）}
 73
     1
 44
0.75
101
Embedded Object
 70
     1
 10
1.0
 20
0.0
 30
0.0
 11
516.048432244013
 21
318.2357177693301
 31
0.0
 40
60.7835669328564
 41
0.0
 42
24.90909090909091
 43
2.670454545454545
 71
     2
 72
     1
 44
60.7835669328564
 45
0.8849620939533352
 73
     0
 74
     0
 46
2.569124224878326
  0
MTEXT
  5
6EB
330
1F
100
AcDbEntity
  8
文字
  6
Continuous
100
AcDbMText
 10
456.6117483337278
 20
318.2357177693302
 30
0.0
 40
2.0
 41
60.7835669328564
 46
0.0
 71
     1
 72
     5
  1
電線・ケーブル（１本あたり導体断面積）
 73
     1
 44
0.75
101
Embedded Object
 70
     1
 10
1.0
 20
0.0
 30
0.0
 11
456.6117483337278
 21
318.2357177693302
 31
0.0
 40
60.7835669328564
 41
0.0
 42
47.43181818181819
 43
2.761363636363636
 71
     2
 72
     1
 44
60.7835669328564
 45
0.8849620939533352
 73
     0
 74
     0
 46
2.569124224878326
  0
MTEXT
  5
6EC
330
1F
100
AcDbEntity
  8
文字
  6
Continuous
100
AcDbMText
 10
426.3940099111245
 20
318.2357177693301
 30
0.0
 40
2.0
 41
30.73155332927162
 46
0.0
 71
     1
 72
     5
  1
通線物
 73
     1
 44
0.75
101
Embedded Object
 70
     1
 10
1.0
 20
0.0
 30
0.0
 11
426.3940099111245
 21
318.2357177693301
 31
0.0
 40
30.73155332927162
 41
0.0
 42
8.363636363636363
 43
2.647727272727272
 71
     2
 72
     1
 44
30.73155332927162
 45
0.8849620939533352
 73
     0
 74
     0
 46
2.580461047574065
  0
LINE
  5
6ED
330
1F
100
AcDbEntity
  8
防火材
  6
Continuous
370
    13
100
AcDbLine
 10
482.8539583615639
 20
415.6846090704428
 30
0.0
 11
483.9188841840145
 21
415.6846090704428
 31
0.0
  0
LINE
  5
6EE
330
1F
100
AcDbEntity
  8
防火材
  6
Continuous
370
    13
100
AcDbLine
 10
488.310517489022
 20
415.6846090704428
 30
0.0
 11
489.3754433114724
 21
415.6846090704428
 31
0.0
  0
LINE
  5
6EF
330
1F
100
AcDbEntity
  8
防火材
  6
Continuous
370
    13
100
AcDbLine
 10
508.2536452525825
 20
415.6846090704428
 30
0.0
 11
509.3185710750331
 21
415.6846090704428
 31
0.0
  0
LINE
  5
6F0
330
1F
100
AcDbEntity
  8
防火材
  6
Continuous
370
    13
100
AcDbLine
 10
513.7102043800407
 20
415.6846090704428
 30
0.0
 11
514.7751302024913
 21
415.6846090704428
 31
0.0
  0
LINE
  5
6F1
330
1F
100
AcDbEntity
  8
防火材
  6
Continuous
370
    13
100
AcDbLine
 10
482.8539583615638
 20
384.8659781433901
 30
0.0
 11
483.9188841840143
 21
384.8659781433901
 31
0.0
  0
LINE
  5
6F2
330
1F
100
AcDbEntity
  8
防火材
  6
Continuous
370
    13
100
AcDbLine
 10
488.3105174890219
 20
384.8659781433901
 30
0.0
 11
489.3754433114724
 21
384.8659781433901
 31
0.0
  0
LINE
  5
6F3
330
1F
100
AcDbEntity
  8
防火材
  6
Continuous
370
    13
100
AcDbLine
 10
508.2536452525824
 20
384.8659781433901
 30
0.0
 11
509.3185710750329
 21
384.8659781433901
 31
0.0
  0
LINE
  5
6F4
330
1F
100
AcDbEntity
  8
防火材
  6
Continuous
370
    13
100
AcDbLine
 10
513.7102043800406
 20
384.8659781433901
 30
0.0
 11
514.7751302024911
 21
384.8659781433901
 31
0.0
  0
DIMENSION
  5
6F5
330
1F
100
AcDbEntity
  8
寸法
  6
Continuous
100
AcDbDimension
280
     0
  2
*D7
 10
526.4847627327541
 20
408.742303757871
 30
0.0
 11
527.7372964352625
 21
406.4586736904316
 31
0.0
 70
   160
  1
２５以上
 71
     5
 42
4.534593431109101
 73
     0
 74
     0
 75
     0
  3
Standard
100
AcDbAlignedDimension
 13
521.950169301645
 23
412.3825548808754
 33
0.0
 14
526.4847627327541
 24
412.4264068856564
 34
0.0
100
AcDbRotatedDimension
1001
ACAD
1000
DSTYLE
1002
{
1070
    41
1040
2.0
1070
    42
1040
0.0
1070
    77
1070
     1
1070
   140
1040
2.0
1070
   147
1040
1.0
1070
   279
1070
     2
1070
   340
1005
11
1002
}
  0
MTEXT
  5
6F6
330
1F
100
AcDbEntity
  8
文字
  6
Continuous
100
AcDbMText
 10
568.1560727145109
 20
427.7971256707536
 30
0.0
 40
2.580152125227005
 41
38.91477991228125
 46
0.0
 71
     1
 72
     5
  1
{\fMS PGothic|b0|i0|c128|p50;ケーブル３２５㎟の場合}
 73
     1
 44
0.75
101
Embedded Object
 70
     1
 10
1.0
 20
0.0
 30
0.0
 11
568.1560727145109
 21
427.7971256707536
 31
0.0
 40
38.91477991228125
 41
0.0
 42
36.44464876883146
 43
3.547709172187132
 71
     2
 72
     1
 44
38.91477991228125
 45
0.7611122758196796
 73
     0
 74
     0
 46
4.601244324975671
  0
MULTILEADER
  5
6F7
330
1F
100
AcDbEntity
  8
文字
  6
Continuous
160
               708
310
C4020000190000000C00000016000000000000C00C00000033000000000000000C00000013000000993A0000C4000000260000001D1DD90FB75B8140D698D1E9CF367D40000000000000000000000000000000000000000000000000000000000000F03F000000000000F03F0000000000000000000000000000000010806B
310
70D130C630000000000400000001000000687024CC26A40440000000000000F03F0000000000000000000000000000F03F0000000000000000000000000000000000000000000000000000000001000000320000002DFF33FF200030FFB430B730C330AF300000000000000000000000000C00000033000000000000000C00
310
000010000000040000000C00000016000000000000C00C00000012000000000000000C00000013000000020000000C00000014000000010000005400000007000000030000005B3C3DC5FE1682408C4C9DB914DE7C400000000000000000F8742D607B218240D0559A18AECB7C40000000000000000061C49CFF93148240D0
310
FE1CBB48D67C4000000000000000000C00000014000000010000000C000000130000008A1300003C00000006000000020000005E006D62C9158240AE255DBA2EDA7C400000000000000000C9F61DCDBED18140DC23B3408E2E7D4000000000000000000C00000013000000122700003C0000000600000002000000C9F61DCD
310
BED18140DC23B3408E2E7D400000000000000000183AFBB344CF8140DC23B3408E2E7D4000000000000000000C00000016000000000000C00C00000012000000000000000C00000017000000000000000C000000130000009A3A00003C000000060000000200000016328176B55D8140DC23B3408E2E7D4000000000000000
310
00183AFBB344CF8140DC23B3408E2E7D4000000000000000000C00000016000000000000C00C00000012000000000000000C00000017000000FFFFFFFF0C0000003300000000000000
100
AcDbMLeader
270
     2
300
CONTEXT_DATA{
 40
1.0
 10
555.6362003722145
 20
466.909729671255
 30
0.0
 41
2.580152125227005
140
1.720101416818003
145
0.0774045637568102
174
     5
175
     5
176
     2
177
     0
290
     1
304
耐火パテ
 11
0.0
 21
0.0
 31
1.0
340
11
 12
569.8311418484349
 22
470.4017310134656
 32
0.0
 13
1.0
 23
0.0
 33
0.0
 42
0.0
 43
0.0
 44
0.0
 45
1.0
170
     1
 90
-1073741824
171
     3
172
     5
 91
-1073741824
141
0.0
 92
        0
291
     0
292
     0
173
     0
293
     0
142
0.0
143
0.0
294
     0
295
     0
296
     0
110
556.1038358891168
120
458.8446760828311
130
0.0
111
1.0
121
0.0
131
0.0
112
0.0
122
1.0
132
0.0
297
     0
302
LEADER{
290
     1
291
     1
 10
570.2181646672189
 20
466.909729671255
 30
0.0
 11
-1.0
 21
0.0
 31
0.0
 90
        1
 40
0.3096182550272406
304
LEADER_LINE{
 10
580.1852420378991
 20
460.730003931877
 30
0.0
 91
        1
305
}
271
     0
303
}
272
     9
273
     9
301
}
340
12E
 90
 50681344
170
     1
 91
-1056964608
341
14
171
    -2
290
     1
291
     1
 41
0.36
 42
2.0
172
     2
343
11
173
     5
 95
        5
174
     1
175
     0
 92
-1056964608
292
     0
 93
-1056964608
 10
1.0
 20
1.0
 30
1.0
 43
0.0
176
     0
293
     0
294
     0
178
     0
179
     1
 45
1.0
271
     0
272
     9
273
     9
295
     0
  0
LINE
  5
6F9
330
1F
100
AcDbEntity
  8
防火材
  6
Continuous
370
    13
100
AcDbLine
 10
590.5748591684751
 20
460.910685847378
 30
0.0
 11
590.5748591684751
 21
431.2065704657443
 31
0.0
  0
LINE
  5
6FA
330
1F
100
AcDbEntity
  8
防火材
  6
Continuous
370
    13
100
AcDbLine
 10
581.03165710074
 20
431.2748110931498
 30
0.0
 11
581.03165710074
 21
469.6997182375436
 31
0.0
  0
HATCH
  5
6FB
330
1F
100
AcDbEntity
  8
防火材
  6
Continuous
370
    13
100
AcDbHatch
 10
0.0
 20
0.0
 30
0.0
210
0.0
220
0.0
230
1.0
  2
AR-SAND
 70
     0
 71
     1
 91
        2
 92
        7
 72
     0
 73
     1
 93
        7
 10
581.03165710074
 20
462.0233083858113
 10
578.8615341460767
 20
462.0233083858113
 10
578.8615341460767
 20
452.7258112212063
 10
574.173519282876
 20
443.6821550640212
 10
579.9465956234083
 20
443.6821550640212
 10
579.9465956234083
 20
441.7943801389895
 10
581.0316571007401
 20
441.7943801389895
 97
        7
330
704
330
702
330
70F
330
6FC
330
703
330
705
330
701
 92
        7
 72
     0
 73
     1
 93
        7
 10
592.7449821231387
 20
452.7258112212059
 10
592.7449821231387
 20
462.0233083858113
 10
590.5748591684753
 20
462.0233083858113
 10
590.5748591684753
 20
441.7943801389895
 10
591.6599206458071
 20
441.7943801389895
 10
591.6599206458071
 20
443.674217432867
 10
597.4361498879517
 20
443.6760727970255
 97
        7
330
711
330
712
330
6FE
330
707
330
706
330
6FF
330
717
 75
     1
 76
     1
 52
0.0
 41
1.0
 77
     0
 78
     4
 53
37.5
 43
-50.54982986383492
 44
252.2877064444592
 45
-0.0629933581096082
 46
1.926823769013158
 79
     6
 49
0.0
 49
-1.52
 49
0.0
 49
-1.7
 49
0.0
 49
-1.625
 53
7.499999999999999
 43
-50.54982986383492
 44
252.2877064444592
 45
1.769776705267727
 46
2.82214606522974
 79
     6
 49
0.0
 49
-0.8199999999999999
 49
0.0
 49
-1.37
 49
0.0
 49
-0.525
 53
327.5
 43
-51.77982986383494
 44
252.2877064444592
 45
3.114141861751495
 46
0.0056590535369649
 79
     6
 49
0.0
 49
-0.5
 49
0.0
 49
-1.8
 49
0.0
 49
-2.35
 53
317.5
 43
-51.77982986383494
 44
252.2877064444592
 45
3.006126604572293
 46
0.8776755649342494
 79
     6
 49
0.0
 49
-0.25
 49
0.0
 49
-1.179999999999999
 49
0.0
 49
-1.35
 47
0.0953286654059809
 98
        2
 10
579.7032493930701
 20
447.0814135624741
 10
593.0570384902448
 20
447.0814135624741
1001
GradientColor1ACI
1070
     5
1001
GradientColor2ACI
1070
     2
1001
ACAD
1010
0.0
1020
0.0
1030
0.0
  0
LINE
  5
6FC
102
{ACAD_REACTORS
330
6FB
102
}
330
1F
100
AcDbEntity
  8
防火材
  6
Continuous
370
    13
100
AcDbLine
 10
567.3153814650117
 20
443.6821550640213
 30
0.0
 11
579.9465956234085
 21
443.6821550640212
 31
0.0
  0
LINE
  5
6FD
330
1F
100
AcDbEntity
  8
防火材
  6
Continuous
370
    13
100
AcDbLine
 10
569.1698223282783
 20
439.9066052139577
 30
0.0
 11
579.9465956234083
 21
439.9066052139577
 31
0.0
  0
LINE
  5
6FE
102
{ACAD_REACTORS
330
6FB
102
}
330
1F
100
AcDbEntity
  8
防火材
  6
Continuous
370
    13
100
AcDbLine
 10
590.5748591684753
 20
431.2065704657443
 30
0.0
 11
590.5748591684753
 21
469.7679588649491
 31
0.0
  0
LINE
  5
6FF
102
{ACAD_REACTORS
330
6FB
102
}
330
1F
100
AcDbEntity
  8
防火材
  6
Continuous
370
    13
100
AcDbLine
 10
604.5650019074281
 20
443.6783626328291
 30
0.0
 11
591.6599206458071
 21
443.674217432867
 31
0.0
  0
LINE
  5
700
330
1F
100
AcDbEntity
  8
防火材
  6
Continuous
370
    13
100
AcDbLine
 10
591.6599206458071
 20
439.9066052139577
 30
0.0
 11
602.7119471039858
 21
439.9066052139577
 31
0.0
  0
LINE
  5
701
102
{ACAD_REACTORS
330
6FB
102
}
330
1F
100
AcDbEntity
  8
防火材
  6
Continuous
370
    13
100
AcDbLine
 10
581.03165710074
 20
469.6997182375437
 30
0.0
 11
581.0316571007401
 21
431.2748110931498
 31
0.0
  0
LINE
  5
702
102
{ACAD_REACTORS
330
6FB
102
}
330
1F
100
AcDbEntity
  8
防火材
  6
Continuous
370
    13
100
AcDbLine
 10
578.8615341460767
 20
462.0233083858113
 30
0.0
 11
578.8615341460767
 21
452.7258112212067
 31
0.0
  0
LINE
  5
703
102
{ACAD_REACTORS
330
6FB
102
}
330
1F
100
AcDbEntity
  8
防火材
  6
Continuous
370
    13
100
AcDbLine
 10
579.9465956234083
 20
443.6821550640213
 30
0.0
 11
579.9465956234083
 21
439.9066052139577
 31
0.0
  0
LINE
  5
704
102
{ACAD_REACTORS
330
6FB
102
}
330
1F
100
AcDbEntity
  8
防火材
  6
Continuous
370
    13
100
AcDbLine
 10
578.8615341460767
 20
462.0233083858113
 30
0.0
 11
581.0316571007401
 21
462.0233083858113
 31
0.0
  0
LINE
  5
705
102
{ACAD_REACTORS
330
6FB
102
}
330
1F
100
AcDbEntity
  8
防火材
  6
Continuous
370
    13
100
AcDbLine
 10
579.9465956234085
 20
441.7943801389895
 30
0.0
 11
581.0316571007403
 21
441.7943801389895
 31
0.0
  0
LINE
  5
706
102
{ACAD_REACTORS
330
6FB
102
}
330
1F
100
AcDbEntity
  8
防火材
  6
Continuous
370
    13
100
AcDbLine
 10
591.6599206458071
 20
443.6821550640213
 30
0.0
 11
591.6599206458071
 21
439.9066052139577
 31
0.0
  0
LINE
  5
707
102
{ACAD_REACTORS
330
6FB
102
}
330
1F
100
AcDbEntity
  8
防火材
  6
Continuous
370
    13
100
AcDbLine
 10
590.5748591684753
 20
441.7943801389895
 30
0.0
 11
591.6599206458071
 21
441.7943801389895
 31
0.0
  0
CIRCLE
  5
708
330
1F
100
AcDbEntity
  8
躯体・通線物他
  6
Continuous
370
    13
100
AcDbCircle
 10
585.9408847161321
 20
450.4872646653467
 30
0.0
 40
19.82974755370198
  0
DIMENSION
  5
70D
330
1F
100
AcDbEntity
  8
寸法
  6
Continuous
100
AcDbDimension
280
     0
  2
*D8
 10
608.7817633649896
 20
462.0233083858116
 30
0.0
 11
611.1139415274656
 21
456.8924262589795
 31
0.0
 70
   160
  1
５０以上
 71
     5
 42
9.29749716460509
 73
     0
 74
     0
 75
     0
 53
90.0
  3
Standard
100
AcDbAlignedDimension
 13
594.6221347657874
 23
452.7258112212063
 33
0.0
 14
594.5110868395231
 24
462.0233083858114
 34
0.0
 50
90.0
100
AcDbRotatedDimension
1001
ACAD
1000
DSTYLE
1002
{
1070
    41
1040
2.0
1070
    42
1040
0.0
1070
    77
1070
     1
1070
   140
1040
2.0
1070
   147
1040
1.0
1070
   279
1070
     2
1070
   340
1005
11
1002
}
  0
MTEXT
  5
70E
330
1F
100
AcDbEntity
  8
文字
  6
Continuous
100
AcDbMText
 10
516.1886224739462
 20
311.3129720606264
 30
0.0
 40
2.0
 41
97.77285581786212
 46
0.0
 71
     1
 72
     5
  3
{\fMS PGothic|b0|i0|c128|p50;１　開口に鋼製スリーブを設置する。\P２　けい酸カルシウム板を床スラブ下の貫通物形状に合せて切断後、\P　　鋼製スリーブ下側の内フランジに設置する。\P３　開口内側から、耐火パテを貫通物とけい酸カルシウム板の間\P　　および貫通物周囲に充てんし、更に高さ３０以上で円錐状に盛り上げる。\P４　けい酸カルシウム板を床スラブ上の貫通物形状に合せて切断後、\P　　鋼製スリーブ上側の上部フランジにＭ６以上のボルト・ナットにて\P　　設置する。\P５
  1
　開口上側から、耐火パテを貫通物とけい酸カルシウム板の間および\P　　貫通物周囲に充てんし、更に高さ５０以上で円錐状に盛り上げて施工完了。\P６　ケーブルが３２５㎟の場合、上側の耐火パテに対し、更に厚さ１０以上、\P　　長さ５０以上巻付ける。}
 73
     1
 44
1.05
101
Embedded Object
 70
     1
 10
1.0
 20
0.0
 30
0.0
 11
516.1886224739462
 21
311.3129720606264
 31
0.0
 40
97.77285581786212
 41
0.0
 42
94.48863636363636
 43
46.25170454545454
 71
     2
 72
     1
 44
97.77285581786212
 45
0.8849620939533352
 73
     0
 74
     0
 46
48.68638712451144
  0
LINE
  5
70F
102
{ACAD_REACTORS
330
6FB
102
}
330
1F
100
AcDbEntity
  8
防火材
  6
Continuous
370
    13
100
AcDbLine
 10
578.8615341460768
 20
452.7258112212066
 30
0.0
 11
574.173519282876
 21
443.6821550640212
 31
0.0
  0
MULTILEADER
  5
710
330
1F
100
AcDbEntity
  8
文字
  6
Continuous
160
               704
310
C0020000190000000C00000016000000000000C00C00000033000000000000000C00000013000000993A0000C000000026000000C82314EF9726814058D110E10B377740000000000000000000000000000000000000000000000000000000000000F03F000000000000F03F0000000000000000000000000000000032FF23
310
FF8A5E000003000000010000000000000000000840000000000000F03F0000000000000000000000000000F03F0000000000000000000000000000000000000000000000000000000001000000320000002DFF33FF200030FFB430B730C330AF300000000000000000000000000C00000033000000000000000C0000001000
310
0000040000000C00000016000000000000C00C00000012000000000000000C00000013000000010000000C00000014000000010000005400000007000000030000007C481D0D47F78040B597A7F347CF774000000000000000009AB56BF20AF2804096899094FCED77400000000000000000184C474FF9FB80402B50811B56
310
D4774000000000000000000C00000014000000010000000C00000013000000891300003C00000006000000020000004A4A322EA0F98040F0739407CFD177400000000000000000A25BC06CDB258140BE377747722D774000000000000000000C00000013000000112700003C0000000600000002000000A25BC06CDB258140
310
BE377747722D774000000000000000001D706EB4BC288140BE377747722D774000000000000000000C00000016000000000000C00C00000012000000000000000C00000017000000000000000C000000130000009A3A00003C00000006000000020000001D706EB4BC288140BE377747722D77400000000000000000B0C69F
310
1DD27B8140BE377747722D774000000000000000000C00000016000000000000C00C00000012000000000000000C00000017000000FFFFFFFF0C0000003300000000000000
100
AcDbMLeader
270
     2
300
CONTEXT_DATA{
 40
1.0
 10
549.0921410205807
 20
370.8404001862472
 30
0.0
 41
3.0
140
2.0
145
0.09
174
     5
175
     5
176
     0
177
     0
290
     1
304
{\fMS PGothic|b0|i0|c128|p50;ＲＣ床}
 11
0.0
 21
0.0
 31
1.0
340
11
 12
549.1821410205807
 22
374.9517638226108
 32
0.0
 13
1.0
 23
0.0
 33
0.0
 42
0.0
 43
0.0
 44
0.0
 45
1.0
170
     1
 90
-1073741824
171
     1
172
     5
 91
-1073741824
141
0.0
 92
        0
291
     0
292
     0
173
     0
293
     0
142
0.0
143
0.0
294
     0
295
     0
296
     0
110
546.6210984621575
120
361.4629838204803
130
0.0
111
1.0
121
0.0
131
0.0
112
0.0
122
1.0
132
0.0
297
     0
302
LEADER{
290
     1
291
     1
 10
548.7321410205806
 20
370.8404001862472
 30
0.0
 11
1.0
 21
0.0
 31
0.0
 90
        0
 40
0.36
304
LEADER_LINE{
 10
542.2553451933665
 20
382.8741651197428
 30
0.0
 91
        0
305
}
271
     0
303
}
272
     9
273
     9
301
}
340
12E
 90
 33904128
170
     1
 91
-1056964608
341
14
171
    -2
290
     1
291
     1
 41
0.36
 42
2.0
172
     2
343
11
173
     5
 95
        5
174
     1
175
     0
 92
-1056964608
292
     0
 93
-1056964608
 10
1.0
 20
1.0
 30
1.0
 43
0.0
176
     0
293
     0
294
     0
178
     0
179
     1
 45
1.0
271
     0
272
     9
273
     9
295
     0
  0
LINE
  5
711
102
{ACAD_REACTORS
330
6FB
102
}
330
1F
100
AcDbEntity
  8
防火材
  6
Continuous
370
    13
100
AcDbLine
 10
592.7449821231387
 20
462.0233083858113
 30
0.0
 11
592.7449821231387
 21
452.7258112212064
 31
0.0
  0
LINE
  5
712
102
{ACAD_REACTORS
330
6FB
102
}
330
1F
100
AcDbEntity
  8
防火材
  6
Continuous
370
    13
100
AcDbLine
 10
592.7449821231387
 20
462.0233083858113
 30
0.0
 11
590.5748591684753
 21
462.0233083858113
 31
0.0
  0
LINE
  5
717
102
{ACAD_REACTORS
330
6FB
102
}
330
1F
100
AcDbEntity
  8
防火材
  6
Continuous
370
    13
100
AcDbLine
 10
592.7449821231387
 20
452.7258112212061
 30
0.0
 11
597.4329969863394
 21
443.6821550640213
 31
0.0
  0
MULTILEADER
  5
718
330
1F
100
AcDbEntity
  8
文字
  6
Continuous
160
               708
310
C4020000190000000C00000016000000000000C00C00000033000000000000000C00000013000000993A0000C40000002600000091C472134DB37B407CB93803AD8E7E40000000000000000000000000000000000000000000000000000000000000F03F000000000000F03F0000000000000000000000000000000010806B
310
70D130C6300000000004000000010000000000000000000840000000000000F03F0000000000000000000000000000F03F0000000000000000000000000000000000000000000000000000000001000000320000002DFF33FF200030FFB430B730C330AF300000000000000000000000000C00000033000000000000000C00
310
000010000000040000000C00000016000000000000C00C00000012000000000000000C00000013000000010000000C00000014000000010000005400000007000000030000002332F8D94DF57D406B1CCD0135687F400000000000000000A8ADB8C053127E40A83852BEB3767F40000000000000000030DA26F392FB7D4096
310
64BFE3935F7F4000000000000000000C00000014000000010000000C00000013000000891300003C000000060000000200000029868F6670F87D408040C672E4637F400000000000000000DC541A18C6C57C40E21F9F6913857E4000000000000000000C00000013000000112700003C0000000600000002000000DC541A18
310
C6C57C40E21F9F6913857E400000000000000000E62BBE8803C07C40E21F9F6913857E4000000000000000000C00000016000000000000C00C00000012000000000000000C00000017000000000000000C000000130000009A3A00003C00000006000000020000001DF32CFCEFB77B40E21F9F6913857E4000000000000000
310
00E62BBE8803C07C40E21F9F6913857E4000000000000000000C00000016000000000000C00C00000012000000000000000C00000017000000FFFFFFFF0C0000003300000000000000
100
AcDbMLeader
270
     2
300
CONTEXT_DATA{
 40
1.0
 10
443.4060901027533
 20
488.3172394004633
 30
0.0
 41
3.0
140
2.0
145
0.09
174
     5
175
     5
176
     2
177
     0
290
     1
304
耐火パテ
 11
0.0
 21
0.0
 31
1.0
340
11
 12
459.910862830026
 22
492.3774666731906
 32
0.0
 13
1.0
 23
0.0
 33
0.0
 42
0.0
 43
0.0
 44
0.0
 45
1.0
170
     1
 90
-1073741824
171
     3
172
     5
 91
-1073741824
141
0.0
 92
        0
291
     0
292
     0
173
     0
293
     0
142
0.0
143
0.0
294
     0
295
     0
296
     0
110
468.6639360495421
120
476.7343602545213
130
0.0
111
1.0
121
0.0
131
0.0
112
0.0
122
1.0
132
0.0
297
     0
302
LEADER{
290
     1
291
     1
 10
460.360862830026
 20
488.3172394004633
 30
0.0
 11
-1.0
 21
0.0
 31
0.0
 90
        0
 40
0.36
304
LEADER_LINE{
 10
481.1454474653242
 20
503.4188826762933
 30
0.0
 91
        0
305
}
271
     0
303
}
272
     9
273
     9
301
}
340
12E
 90
 33904128
170
     1
 91
-1056964608
341
14
171
    -2
290
     1
291
     1
 41
0.36
 42
2.0
172
     2
343
11
173
     5
 95
        5
174
     1
175
     2
 92
-1056964608
292
     0
 93
-1056964608
 10
1.0
 20
1.0
 30
1.0
 43
0.0
176
     0
293
     0
294
     0
178
     0
179
     3
 45
1.0
271
     0
272
     9
273
     9
295
     0
  0
LINE
  5
719
330
1F
100
AcDbEntity
  8
防火材
  6
Continuous
370
    13
100
AcDbLine
 10
468.8824510389711
 20
459.308102955828
 30
0.0
 11
468.8824510389711
 21
530.0212010402979
 31
0.0
  0
LINE
  5
71A
330
1F
100
AcDbEntity
  8
防火材
  6
Continuous
370
    13
100
AcDbLine
 10
468.8824510389711
 20
530.0212010402979
 30
0.0
 11
524.2228879404242
 21
530.0212010402979
 31
0.0
  0
LINE
  5
71B
330
1F
100
AcDbEntity
  8
防火材
  6
Continuous
370
    13
100
AcDbLine
 10
524.2228879404242
 20
459.308102955828
 30
0.0
 11
524.2228879404242
 21
530.0212010402979
 31
0.0
  0
LINE
  5
71C
330
1F
100
AcDbEntity
  8
防火材
  6
Continuous
370
    13
100
AcDbLine
 10
524.2228879404242
 20
459.308102955828
 30
0.0
 11
468.8824510389711
 21
459.308102955828
 31
0.0
  0
HATCH
  5
71D
330
1F
100
AcDbEntity
  8
防火材
  6
Continuous
370
    13
100
AcDbHatch
 10
0.0
 20
0.0
 30
0.0
210
0.0
220
0.0
230
1.0
  2
AR-SAND
 70
     0
 71
     0
 91
       69
 92
        7
 72
     1
 73
     1
 93
       25
 10
488.1448528323273
 20
469.5736854254225
 42
0.0
 10
488.1448528323274
 20
470.9646403481229
 42
0.414213562373107
 10
487.6448528323274
 20
471.4646403481229
 42
0.0
 10
486.4350013675855
 20
471.4646403481229
 42
0.3169414370837627
 10
485.9641418945482
 20
471.1328406948853
 42
-0.3169414370838044
 10
485.4932824215109
 20
470.8010410416476
 42
0.0
 10
481.6570093916846
 20
470.8010410416476
 42
0.0
 10
481.6570093916846
 20
469.8010410416476
 42
0.0
 10
485.5761913556429
 20
469.8010410416475
 42
-0.2679491924349569
 10
485.7730870949904
 20
469.6873632335354
 42
0.2679491924327154
 10
485.8387190081052
 20
469.6494706308309
 42
0.0
 10
486.9932824215108
 20
469.649470630831
 42
0.0
 10
486.9932824215108
 20
470.464640348123
 42
0.0
 10
487.1448528323274
 20
470.464640348123
 42
0.0
 10
487.1448528323274
 20
469.5736854254225
 42
-0.4142135623730951
 10
487.0690676269191
 20
469.4979002200142
 42
0.0
 10
485.8387190081052
 20
469.4979002200143
 42
-0.267949192434983
 10
485.6418232687579
 20
469.6115780281263
 42
0.2679491924327412
 10
485.5761913556429
 20
469.6494706308309
 42
0.0
 10
483.2752949008918
 20
469.649470630831
 42
0.0
 10
483.2752949008918
 20
468.649470630831
 42
0.0
 10
485.1311468129608
 20
468.649470630831
 42
-0.1059046892685465
 10
485.3359605144663
 20
468.6055970910169
 42
0.1059046892678855
 10
485.8387190081052
 20
468.4979002200143
 42
0.0
 10
487.0690676269191
 20
468.4979002200142
 42
0.4142135623730952
 97
        0
 92
        7
 72
     1
 73
     1
 93
       25
 10
483.2752949008918
 20
469.649470630831
 42
0.0
 10
480.9743984461404
 20
469.6494706308309
 42
0.2679491924390192
 10
480.9087665330228
 20
469.6115780281279
 42
-0.2679491924326408
 10
480.7118707936783
 20
469.4979002200143
 42
0.0
 10
479.4815221748642
 20
469.4979002200142
 42
-0.4142135623730951
 10
479.405736969456
 20
469.5736854254225
 42
0.0
 10
479.405736969456
 20
470.464640348123
 42
0.0
 10
479.5573073802724
 20
470.464640348123
 42
0.0
 10
479.5573073802724
 20
469.649470630831
 42
0.0
 10
480.7118707936783
 20
469.6494706308309
 42
0.2679491924389363
 10
480.7775027067958
 20
469.6873632335338
 42
-0.2679491924326157
 10
480.9743984461404
 20
469.8010410416475
 42
0.0
 10
481.6570093916846
 20
469.8010410416475
 42
0.0
 10
481.6570093916846
 20
470.8010410416476
 42
0.0
 10
480.9990263263473
 20
470.8010410416476
 42
-0.3169414370838666
 10
480.5281668533098
 20
471.1328406948853
 42
0.316941437083825
 10
480.0573073802724
 20
471.4646403481229
 42
0.0
 10
478.9057369694559
 20
471.4646403481229
 42
0.4142135623730951
 10
478.405736969456
 20
470.9646403481229
 42
0.0
 10
478.405736969456
 20
469.5736854254225
 42
0.4142135623730951
 10
479.4815221748642
 20
468.4979002200142
 42
0.0
 10
480.7118707936784
 20
468.4979002200143
 42
0.1059046892681373
 10
481.2146292873197
 20
468.6055970910114
 42
-0.1059046892678852
 10
481.4194429888227
 20
468.649470630831
 42
0.0
 10
483.2752949008918
 20
468.649470630831
 42
0.0
 97
        0
 92
        7
 72
     1
 73
     1
 93
        6
 10
485.9244446722401
 20
473.4989452115613
 42
0.6041906245091981
 10
485.8704564267338
 20
477.3113522342633
 42
0.0
 10
483.8581231452776
 20
478.43037648452
 42
0.5719968973053673
 10
480.6570093916847
 20
476.5476985157666
 42
0.0
 10
480.6570093916847
 20
474.2645798582436
 42
0.5805414015134968
 10
483.9060780981085
 20
472.4093800940362
 42
0.0
 97
        0
 92
       22
 72
     1
 73
     1
 93
        6
 10
481.6570093916847
 20
474.2393212886244
 42
-0.4142135623730951
 10
482.8111980052558
 20
475.3935099021955
 42
-0.4142135623730951
 10
481.6570093916847
 20
476.5476985157666
 42
-1.0
 10
483.9653866188269
 20
476.5476985157666
 42
-0.4142135623730951
 10
482.8111980052558
 20
475.3935099021955
 42
-0.4142135623730951
 10
483.9653866188269
 20
474.2393212886244
 42
-1.0
 97
        0
 92
        6
 72
     1
 73
     1
 93
        2
 10
481.8622577336095
 20
474.2393212886244
 42
-1.0
 10
483.7601382769021
 20
474.2393212886244
 42
-1.0
 97
        0
 92
       22
 72
     1
 73
     1
 93
        2
 10
483.7402654695499
 20
475.3909491494655
 42
-1.0
 10
486.0486426966922
 20
475.3909491494655
 42
-1.0
 97
        0
 92
        6
 72
     1
 73
     1
 93
        2
 10
483.9455138114748
 20
475.3909491494655
 42
-1.0
 10
485.8433943547673
 20
475.3909491494655
 42
-1.0
 97
        0
 92
        6
 72
     1
 73
     1
 93
        2
 10
481.8622577336095
 20
476.5476985157666
 42
-1.0
 10
483.7601382769021
 20
476.5476985157666
 42
-1.0
 97
        0
 92
        7
 72
     1
 73
     1
 93
        6
 10
485.9244446722397
 20
481.5970377893759
 42
0.6041906245092674
 10
485.8704564267338
 20
485.4094448120783
 42
0.0
 10
483.8581231452776
 20
486.5284690623349
 42
0.5719968973053672
 10
480.6570093916847
 20
484.6457910935814
 42
0.0
 10
480.6570093916847
 20
482.3626724360584
 42
0.5805414015134977
 10
483.9060780981085
 20
480.5074726718512
 42
0.0
 97
        0
 92
       22
 72
     1
 73
     1
 93
        2
 10
483.7402654695499
 20
483.4890417272804
 42
-1.0
 10
486.0486426966922
 20
483.4890417272804
 42
-1.0
 97
        0
 92
       22
 72
     1
 73
     1
 93
        6
 10
481.6570093916847
 20
482.3374138664393
 42
-0.4142135623730951
 10
482.8111980052558
 20
483.4916024800103
 42
-0.4142135623730951
 10
481.6570093916847
 20
484.6457910935814
 42
-1.0
 10
483.9653866188269
 20
484.6457910935814
 42
-0.4142135623730951
 10
482.8111980052558
 20
483.4916024800103
 42
-0.4142135623730951
 10
483.9653866188269
 20
482.3374138664393
 42
-1.0
 97
        0
 92
        6
 72
     1
 73
     1
 93
        2
 10
483.9455138114748
 20
483.4890417272804
 42
-1.0
 10
485.8433943547673
 20
483.4890417272804
 42
-1.0
 97
        0
 92
        6
 72
     1
 73
     1
 93
        2
 10
481.8622577336095
 20
482.3374138664393
 42
-1.0
 10
483.7601382769021
 20
482.3374138664393
 42
-1.0
 97
        0
 92
        6
 72
     1
 73
     1
 93
        2
 10
481.8622577336095
 20
484.6457910935814
 42
-1.0
 10
483.7601382769021
 20
484.6457910935814
 42
-1.0
 97
        0
 92
        7
 72
     1
 73
     1
 93
        2
 10
489.4544479343269
 20
494.1171980085442
 42
1.0
 10
480.6570093916845
 20
494.1171980085442
 42
1.0
 97
        0
 92
       22
 72
     1
 73
     1
 93
        2
 10
481.6570093916846
 20
494.1171980085442
 42
-1.0
 10
488.4544479343269
 20
494.1171980085442
 42
-1.0
 97
        0
 92
        6
 72
     1
 73
     1
 93
        2
 10
482.0206745026784
 20
494.1171979385759
 42
-1.0
 10
488.0907830338323
 20
494.1171979385759
 42
-1.0
 97
        0
 92
        6
 72
     1
 73
     1
 93
        6
 10
483.2625645632773
 20
493.1560207700563
 42
-0.3714809898994154
 10
484.2464779449012
 20
494.2975800988179
 42
-0.3714809898994066
 10
483.2625645632773
 20
495.4391394275794
 42
-1.0
 10
485.5709417904196
 20
495.4391394275794
 42
-0.3714809898994573
 10
484.5870284087955
 20
494.2975800988179
 42
-0.371480989899466
 10
485.5709417904196
 20
493.1560207700563
 42
-1.0
 97
        0
 92
        6
 72
     1
 73
     1
 93
        2
 10
483.467741190083
 20
493.1560207700563
 42
-1.0
 10
485.3657651636139
 20
493.1560207700563
 42
-1.0
 97
        0
 92
        6
 72
     1
 73
     1
 93
        2
 10
485.3458206411427
 20
494.2823900612784
 42
-1.0
 10
487.6541978682849
 20
494.2823900612784
 42
-1.0
 97
        0
 92
        6
 72
     1
 73
     1
 93
        2
 10
485.5509972679483
 20
494.2823900612784
 42
-1.0
 10
487.4490212414793
 20
494.2823900612784
 42
-1.0
 97
        0
 92
        6
 72
     1
 73
     1
 93
        2
 10
483.467741190083
 20
495.4391394275794
 42
-1.0
 10
485.3657651636139
 20
495.4391394275794
 42
-1.0
 97
        0
 92
        7
 72
     1
 73
     1
 93
       25
 10
508.6749817919103
 20
469.649470630831
 42
0.0
 10
506.3740853371589
 20
469.6494706308309
 42
0.2679491924390208
 10
506.3084534240413
 20
469.6115780281279
 42
-0.2679491924326405
 10
506.1115576846969
 20
469.4979002200143
 42
0.0
 10
504.8812090658827
 20
469.4979002200142
 42
-0.4142135623730951
 10
504.8054238604745
 20
469.5736854254225
 42
0.0
 10
504.8054238604745
 20
470.464640348123
 42
0.0
 10
504.956994271291
 20
470.464640348123
 42
0.0
 10
504.956994271291
 20
469.649470630831
 42
0.0
 10
506.1115576846969
 20
469.6494706308309
 42
0.2679491924389371
 10
506.1771895978144
 20
469.6873632335338
 42
-0.2679491924326145
 10
506.3740853371589
 20
469.8010410416475
 42
0.0
 10
507.056696282703
 20
469.8010410416475
 42
0.0
 10
507.056696282703
 20
470.8010410416476
 42
0.0
 10
506.3987132173658
 20
470.8010410416476
 42
-0.3169414370838677
 10
505.9278537443283
 20
471.1328406948853
 42
0.3169414370838266
 10
505.456994271291
 20
471.4646403481229
 42
0.0
 10
504.3054238604745
 20
471.4646403481229
 42
0.4142135623730951
 10
503.8054238604745
 20
470.9646403481229
 42
0.0
 10
503.8054238604745
 20
469.5736854254225
 42
0.4142135623730951
 10
504.8812090658827
 20
468.4979002200142
 42
0.0
 10
506.111557684697
 20
468.4979002200143
 42
0.1059046892681368
 10
506.6143161783383
 20
468.6055970910114
 42
-0.1059046892678844
 10
506.8191298798413
 20
468.649470630831
 42
0.0
 10
508.6749817919103
 20
468.649470630831
 42
0.0
 97
        0
 92
        7
 72
     1
 73
     1
 93
       25
 10
513.5445397233459
 20
469.5736854254225
 42
0.0
 10
513.544539723346
 20
470.9646403481229
 42
0.414213562373107
 10
513.044539723346
 20
471.4646403481229
 42
0.0
 10
511.834688258604
 20
471.4646403481229
 42
0.3169414370837639
 10
511.3638287855667
 20
471.1328406948853
 42
-0.3169414370838051
 10
510.8929693125294
 20
470.8010410416476
 42
0.0
 10
507.056696282703
 20
470.8010410416476
 42
0.0
 10
507.056696282703
 20
469.8010410416476
 42
0.0
 10
510.9758782466615
 20
469.8010410416475
 42
-0.2679491924349569
 10
511.1727739860088
 20
469.6873632335354
 42
0.267949192432726
 10
511.2384058991238
 20
469.6494706308309
 42
0.0
 10
512.3929693125293
 20
469.649470630831
 42
0.0
 10
512.3929693125293
 20
470.464640348123
 42
0.0
 10
512.544539723346
 20
470.464640348123
 42
0.0
 10
512.5445397233459
 20
469.5736854254225
 42
-0.4142135623730951
 10
512.4687545179376
 20
469.4979002200142
 42
0.0
 10
511.2384058991238
 20
469.4979002200143
 42
-0.2679491924349856
 10
511.0415101597764
 20
469.6115780281263
 42
0.2679491924327388
 10
510.9758782466615
 20
469.6494706308309
 42
0.0
 10
508.6749817919103
 20
469.649470630831
 42
0.0
 10
508.6749817919103
 20
468.649470630831
 42
0.0
 10
510.5308337039794
 20
468.649470630831
 42
-0.1059046892685456
 10
510.7356474054848
 20
468.6055970910169
 42
0.1059046892678851
 10
511.2384058991238
 20
468.4979002200143
 42
0.0
 10
512.4687545179376
 20
468.4979002200142
 42
0.4142135623730946
 97
        0
 92
        7
 72
     1
 73
     1
 93
        6
 10
511.2701433177498
 20
477.3113522342647
 42
0.0
 10
509.2578100362961
 20
478.43037648452
 42
0.5719968973053677
 10
506.0566962827032
 20
476.5476985157666
 42
0.0
 10
506.0566962827032
 20
474.2645798582433
 42
0.580541401513024
 10
509.3057649891245
 20
472.4093800940348
 42
0.0
 10
511.3241315632587
 20
473.4989452115612
 42
0.6041906245096842
 97
        0
 92
       22
 72
     1
 73
     1
 93
        2
 10
509.1399523605685
 20
475.3909491494655
 42
-1.0
 10
511.4483295877108
 20
475.3909491494655
 42
-1.0
 97
        0
 92
       22
 72
     1
 73
     1
 93
        6
 10
507.0566962827032
 20
474.2393212886243
 42
-0.4142135623730951
 10
508.2108848962743
 20
475.3935099021954
 42
-0.4142135623730951
 10
507.0566962827032
 20
476.5476985157666
 42
-1.0
 10
509.3650735098455
 20
476.5476985157666
 42
-0.4142135623730951
 10
508.2108848962743
 20
475.3935099021954
 42
-0.4142135623730951
 10
509.3650735098455
 20
474.2393212886243
 42
-1.0
 97
        0
 92
        6
 72
     1
 73
     1
 93
        2
 10
509.3452007024934
 20
475.3909491494655
 42
-1.0
 10
511.2430812457859
 20
475.3909491494655
 42
-1.0
 97
        0
 92
        6
 72
     1
 73
     1
 93
        2
 10
507.2619446246281
 20
474.2393212886243
 42
-1.0
 10
509.1598251679206
 20
474.2393212886243
 42
-1.0
 97
        0
 92
        6
 72
     1
 73
     1
 93
        2
 10
507.2619446246281
 20
476.5476985157666
 42
-1.0
 10
509.1598251679206
 20
476.5476985157666
 42
-1.0
 97
        0
 92
        7
 72
     1
 73
     1
 93
        6
 10
511.2701433177498
 20
485.4094448120796
 42
0.0
 10
509.2578100362961
 20
486.5284690623349
 42
0.5719968973053677
 10
506.0566962827032
 20
484.6457910935814
 42
0.0
 10
506.0566962827032
 20
482.3626724360582
 42
0.580541401513024
 10
509.3057649891245
 20
480.5074726718498
 42
0.0
 10
511.3241315632584
 20
481.5970377893759
 42
0.6041906245097372
 97
        0
 92
       22
 72
     1
 73
     1
 93
        6
 10
507.0566962827032
 20
482.3374138664392
 42
-0.4142135623730951
 10
508.2108848962743
 20
483.4916024800103
 42
-0.4142135623730951
 10
507.0566962827032
 20
484.6457910935814
 42
-1.0
 10
509.3650735098455
 20
484.6457910935814
 42
-0.4142135623730951
 10
508.2108848962743
 20
483.4916024800103
 42
-0.4142135623730951
 10
509.3650735098455
 20
482.3374138664392
 42
-1.0
 97
        0
 92
       22
 72
     1
 73
     1
 93
        2
 10
509.1399523605685
 20
483.4890417272804
 42
-1.0
 10
511.4483295877108
 20
483.4890417272804
 42
-1.0
 97
        0
 92
        6
 72
     1
 73
     1
 93
        2
 10
507.2619446246281
 20
482.3374138664392
 42
-1.0
 10
509.1598251679206
 20
482.3374138664392
 42
-1.0
 97
        0
 92
        6
 72
     1
 73
     1
 93
        2
 10
509.3452007024934
 20
483.4890417272804
 42
-1.0
 10
511.2430812457859
 20
483.4890417272804
 42
-1.0
 97
        0
 92
        6
 72
     1
 73
     1
 93
        2
 10
507.2619446246281
 20
484.6457910935814
 42
-1.0
 10
509.1598251679206
 20
484.6457910935814
 42
-1.0
 97
        0
 92
        7
 72
     1
 73
     1
 93
        8
 10
506.0566962827033
 20
494.1171980085441
 42
0.7495304717268087
 10
514.1615699098026
 20
491.7479890437125
 42
0.0
 10
513.414018142036
 20
492.4444866133952
 42
-0.7709199967286552
 10
507.0566962827033
 20
494.1171980085441
 42
-1.0
 10
513.8541348253457
 20
494.1171980085441
 42
-0.1293564947566885
 10
513.414018142036
 20
492.4444866133952
 42
0.0
 10
514.1615699098026
 20
491.7479890437125
 42
0.1431638558578376
 10
514.8541348253456
 20
494.1171980085441
 42
1.0
 97
        0
 92
        7
 72
     1
 73
     1
 93
       25
 10
513.544539723346
 20
518.3646636480029
 42
0.0
 10
513.5445397233459
 20
519.7556185707033
 42
0.4142135623730951
 10
512.4687545179376
 20
520.8314037761115
 42
0.0
 10
511.2384058991238
 20
520.8314037761115
 42
0.1059046892681529
 10
510.7356474054823
 20
520.7237069051144
 42
-0.1059046892678964
 10
510.5308337039794
 20
520.6798333652947
 42
0.0
 10
508.6749817919103
 20
520.6798333652947
 42
0.0
 10
508.6749817919103
 20
519.6798333652948
 42
0.0
 10
510.9758782466615
 20
519.679833365295
 42
0.2679491924395166
 10
511.0415101597792
 20
519.7177259679979
 42
-0.2679491924327264
 10
511.2384058991238
 20
519.8314037761115
 42
0.0
 10
512.4687545179376
 20
519.8314037761115
 42
-0.4142135623730951
 10
512.5445397233459
 20
519.7556185707033
 42
0.0
 10
512.544539723346
 20
518.8646636480028
 42
0.0
 10
512.3929693125293
 20
518.8646636480028
 42
0.0
 10
512.3929693125293
 20
519.6798333652948
 42
0.0
 10
511.2384058991238
 20
519.6798333652948
 42
0.2679491924394329
 10
511.172773986006
 20
519.6419407625919
 42
-0.267949192432684
 10
510.9758782466615
 20
519.5282629544784
 42
0.0
 10
507.056696282703
 20
519.5282629544782
 42
0.0
 10
507.056696282703
 20
518.5282629544782
 42
0.0
 10
510.8929693125294
 20
518.5282629544782
 42
-0.3169414370837639
 10
511.3638287855667
 20
518.1964633012405
 42
0.3169414370838022
 10
511.834688258604
 20
517.8646636480029
 42
0.0
 10
513.044539723346
 20
517.8646636480029
 42
0.4142135623730951
 97
        0
 92
        7
 72
     1
 73
     1
 93
       25
 10
508.6749817919103
 20
520.6798333652947
 42
0.0
 10
506.8191298798413
 20
520.6798333652947
 42
-0.1059046892685576
 10
506.6143161783359
 20
520.7237069051088
 42
0.1059046892678932
 10
506.1115576846969
 20
520.8314037761115
 42
0.0
 10
504.8812090658827
 20
520.8314037761115
 42
0.4142135623730951
 10
503.8054238604745
 20
519.7556185707033
 42
0.0
 10
503.8054238604745
 20
518.3646636480029
 42
0.4142135623730826
 10
504.3054238604745
 20
517.8646636480029
 42
0.0
 10
505.456994271291
 20
517.8646636480029
 42
0.3169414370838643
 10
505.9278537443285
 20
518.1964633012405
 42
-0.3169414370838238
 10
506.3987132173658
 20
518.5282629544782
 42
0.0
 10
507.056696282703
 20
518.5282629544782
 42
0.0
 10
507.056696282703
 20
519.5282629544782
 42
0.0
 10
506.3740853371589
 20
519.5282629544784
 42
-0.2679491924347017
 10
506.1771895978117
 20
519.6419407625903
 42
0.2679491924326175
 10
506.1115576846969
 20
519.6798333652948
 42
0.0
 10
504.956994271291
 20
519.6798333652948
 42
0.0
 10
504.956994271291
 20
518.8646636480028
 42
0.0
 10
504.8054238604745
 20
518.8646636480028
 42
0.0
 10
504.8054238604745
 20
519.7556185707033
 42
-0.4142135623730951
 10
504.8812090658827
 20
519.8314037761115
 42
0.0
 10
506.1115576846969
 20
519.8314037761115
 42
-0.2679491924347324
 10
506.308453424044
 20
519.7177259679995
 42
0.2679491924326427
 10
506.3740853371589
 20
519.679833365295
 42
0.0
 10
508.6749817919103
 20
519.6798333652949
 42
0.0
 97
        0
 92
        7
 72
     1
 73
     1
 93
       25
 10
488.1448528323273
 20
519.7556185707033
 42
0.4142135623730951
 10
487.0690676269191
 20
520.8314037761115
 42
0.0
 10
485.8387190081052
 20
520.8314037761115
 42
0.1059046892681524
 10
485.3359605144637
 20
520.7237069051144
 42
-0.1059046892678949
 10
485.1311468129608
 20
520.6798333652947
 42
0.0
 10
483.2752949008918
 20
520.6798333652947
 42
0.0
 10
483.2752949008918
 20
519.6798333652948
 42
0.0
 10
485.5761913556429
 20
519.679833365295
 42
0.2679491924395057
 10
485.6418232687607
 20
519.7177259679979
 42
-0.2679491924327247
 10
485.8387190081052
 20
519.8314037761115
 42
0.0
 10
487.0690676269191
 20
519.8314037761115
 42
-0.4142135623730917
 10
487.1448528323274
 20
519.7556185707033
 42
0.0
 10
487.1448528323274
 20
518.8646636480028
 42
0.0
 10
486.9932824215108
 20
518.8646636480028
 42
0.0
 10
486.9932824215108
 20
519.6798333652948
 42
0.0
 10
485.8387190081052
 20
519.6798333652948
 42
0.2679491924394288
 10
485.7730870949875
 20
519.6419407625919
 42
-0.2679491924326823
 10
485.5761913556429
 20
519.5282629544784
 42
0.0
 10
481.6570093916846
 20
519.5282629544782
 42
0.0
 10
481.6570093916846
 20
518.5282629544782
 42
0.0
 10
485.4932824215109
 20
518.5282629544782
 42
-0.3169414370837633
 10
485.9641418945482
 20
518.1964633012405
 42
0.3169414370838018
 10
486.4350013675855
 20
517.8646636480029
 42
0.0
 10
487.6448528323274
 20
517.8646636480029
 42
0.4142135623730951
 10
488.1448528323274
 20
518.3646636480029
 42
0.0
 97
        0
 92
        7
 72
     1
 73
     1
 93
       25
 10
483.2752949008918
 20
520.6798333652947
 42
0.0
 10
481.4194429888227
 20
520.6798333652947
 42
-0.1059046892685592
 10
481.2146292873173
 20
520.7237069051088
 42
0.1059046892678932
 10
480.7118707936783
 20
520.8314037761115
 42
0.0
 10
479.4815221748642
 20
520.8314037761115
 42
0.4142135623730951
 10
478.405736969456
 20
519.7556185707033
 42
0.0
 10
478.405736969456
 20
518.3646636480029
 42
0.4142135623730826
 10
478.9057369694559
 20
517.8646636480029
 42
0.0
 10
480.0573073802724
 20
517.8646636480029
 42
0.3169414370838643
 10
480.52816685331
 20
518.1964633012405
 42
-0.3169414370838238
 10
480.9990263263473
 20
518.5282629544782
 42
0.0
 10
481.6570093916846
 20
518.5282629544782
 42
0.0
 10
481.6570093916846
 20
519.5282629544782
 42
0.0
 10
480.9743984461404
 20
519.5282629544784
 42
-0.2679491924346977
 10
480.7775027067932
 20
519.6419407625903
 42
0.2679491924326237
 10
480.7118707936783
 20
519.6798333652948
 42
0.0
 10
479.5573073802724
 20
519.6798333652948
 42
0.0
 10
479.5573073802724
 20
518.8646636480028
 42
0.0
 10
479.405736969456
 20
518.8646636480028
 42
0.0
 10
479.405736969456
 20
519.7556185707033
 42
-0.4142135623730951
 10
479.4815221748642
 20
519.8314037761115
 42
0.0
 10
480.7118707936783
 20
519.8314037761115
 42
-0.2679491924347297
 10
480.9087665330255
 20
519.7177259679995
 42
0.2679491924326394
 10
480.9743984461404
 20
519.679833365295
 42
0.0
 10
483.2752949008918
 20
519.6798333652949
 42
0.0
 97
        0
 92
        7
 72
     1
 73
     1
 93
        8
 10
487.273763845969
 20
513.0573319744008
 42
0.2549362397426802
 10
486.2862486735178
 20
514.8682438067727
 42
0.0
 10
483.9518465496892
 20
516.1135227065495
 42
0.5494738907256057
 10
480.8821305409614
 20
514.1635642014635
 42
0.0
 10
480.8821305409614
 20
502.6974537746095
 42
0.5968974221840407
 10
484.2200067095738
 20
500.8976170167675
 42
0.0
 10
486.1019546335994
 20
501.9066743248796
 42
0.2814104729853877
 10
487.273763845969
 20
503.8238230658317
 42
0.0
 97
        0
 92
       22
 72
     1
 73
     1
 93
       18
 10
485.1195752323978
 20
507.2863889065451
 42
-0.4142135623730951
 10
486.273763845969
 20
506.1322002929739
 42
-0.4142135623731095
 10
485.1195752323978
 20
504.9780116794027
 42
-0.4142135623730951
 10
486.273763845969
 20
503.8238230658317
 42
-1.0
 10
483.9653866188267
 20
503.8238230658317
 42
-0.4142135623731095
 10
485.1195752323978
 20
504.9780116794028
 42
-0.4142135623730951
 10
483.9653866188267
 20
506.1322002929739
 42
-0.4142135623731095
 10
485.1195752323978
 20
507.2863889065451
 42
-0.4142135623730951
 10
483.9653866188267
 20
508.4405775201162
 42
-0.4142135623731095
 10
485.1195752323978
 20
509.5947661336874
 42
-0.4142135623730951
 10
483.9653866188267
 20
510.7489547472584
 42
-0.4142135623731095
 10
485.1195752323978
 20
511.9031433608297
 42
-0.4142135623730951
 10
483.9653866188267
 20
513.0573319744008
 42
-1.0
 10
486.273763845969
 20
513.0573319744008
 42
-0.4142135623731095
 10
485.1195752323978
 20
511.9031433608296
 42
-0.4142135623730951
 10
486.273763845969
 20
510.7489547472584
 42
-0.4142135623731095
 10
485.1195752323978
 20
509.5947661336873
 42
-0.4142135623730951
 10
486.273763845969
 20
508.4405775201162
 42
-0.4142135623731095
 97
        0
 92
        6
 72
     1
 73
     1
 93
        2
 10
484.1525387886996
 20
508.4405775201162
 42
-1.0
 10
486.0866116760961
 20
508.4405775201162
 42
-1.0
 97
        0
 92
        6
 72
     1
 73
     1
 93
        2
 10
486.0866116760961
 20
506.1322002929739
 42
-1.0
 10
484.1525387886996
 20
506.1322002929739
 42
-1.0
 97
        0
 92
        6
 72
     1
 73
     1
 93
        2
 10
484.1525387886996
 20
510.7489547472584
 42
-1.0
 10
486.0866116760961
 20
510.7489547472584
 42
-1.0
 97
        0
 92
       22
 72
     1
 73
     1
 93
       22
 10
484.1905077681036
 20
507.288949659275
 42
-0.4142135623731095
 10
483.0363191545325
 20
506.1347610457038
 42
-0.4142135623730951
 10
484.1905077681036
 20
504.9805724321327
 42
-0.3714809898994781
 10
483.2065943864794
 20
503.8390131033712
 42
-0.3714809898994957
 10
484.1905077681036
 20
502.6974537746095
 42
-1.0
 10
481.8821305409613
 20
502.6974537746095
 42
-0.3714809898993945
 10
482.8660439225851
 20
503.8390131033712
 42
-0.3714809898993768
 10
481.8821305409613
 20
504.9805724321327
 42
-0.4142135623731095
 10
483.0363191545325
 20
506.1347610457039
 42
-0.4142135623730951
 10
481.8821305409613
 20
507.288949659275
 42
-0.3714809898994615
 10
482.8660439225854
 20
508.4305089880365
 42
-0.371480989899472
 10
481.8821305409613
 20
509.572068316798
 42
-0.4142135623731095
 10
483.0363191545325
 20
510.7262569303693
 42
-0.4142135623730951
 10
481.8821305409613
 20
511.8804455439403
 42
-0.3714809898994698
 10
482.8660439225854
 20
513.0220048727019
 42
-0.3714809898994838
 10
481.8821305409613
 20
514.1635642014635
 42
-1.0
 10
484.1905077681036
 20
514.1635642014635
 42
-0.3714809898994027
 10
483.2065943864798
 20
513.0220048727019
 42
-0.3714809898993889
 10
484.1905077681036
 20
511.8804455439403
 42
-0.4142135623731095
 10
483.0363191545325
 20
510.7262569303692
 42
-0.4142135623730951
 10
484.1905077681036
 20
509.572068316798
 42
-0.3714809898994111
 10
483.2065943864797
 20
508.4305089880365
 42
-0.3714809898994007
 97
        0
 92
        6
 72
     1
 73
     1
 93
        2
 10
484.0033555982308
 20
507.288949659275
 42
-1.0
 10
482.0692827108342
 20
507.288949659275
 42
-1.0
 97
        0
 92
        6
 72
     1
 73
     1
 93
        2
 10
482.0692827108342
 20
509.572068316798
 42
-1.0
 10
484.0033555982308
 20
509.572068316798
 42
-1.0
 97
        0
 92
        6
 72
     1
 73
     1
 93
        2
 10
486.0866116760961
 20
503.8238230658317
 42
-1.0
 10
484.1525387886996
 20
503.8238230658317
 42
-1.0
 97
        0
 92
        6
 72
     1
 73
     1
 93
        2
 10
484.0033555982308
 20
504.9805724321327
 42
-1.0
 10
482.0692827108342
 20
504.9805724321327
 42
-1.0
 97
        0
 92
        6
 72
     1
 73
     1
 93
        2
 10
484.1525387886996
 20
513.0573319744008
 42
-1.0
 10
486.0866116760961
 20
513.0573319744008
 42
-1.0
 97
        0
 92
        6
 72
     1
 73
     1
 93
        2
 10
482.0692827108342
 20
511.8804455439403
 42
-1.0
 10
484.0033555982308
 20
511.8804455439403
 42
-1.0
 97
        0
 92
        6
 72
     1
 73
     1
 93
        2
 10
484.0033555982308
 20
502.6974537746095
 42
-1.0
 10
482.0692827108342
 20
502.6974537746095
 42
-1.0
 97
        0
 92
        6
 72
     1
 73
     1
 93
        2
 10
482.0692827108342
 20
514.1635642014635
 42
-1.0
 10
484.0033555982308
 20
514.1635642014635
 42
-1.0
 97
        0
 92
        7
 72
     1
 73
     1
 93
        8
 10
511.6859355645367
 20
514.8682438067726
 42
0.0
 10
509.3515334407088
 20
516.113522706549
 42
0.5494738907257522
 10
506.2818174319801
 20
514.1635642014635
 42
0.0
 10
506.2818174319801
 20
502.6974537746095
 42
0.5968974221842336
 10
509.6196936005935
 20
500.8976170167681
 42
0.0
 10
511.5016415246129
 20
501.9066743248769
 42
0.2814104729861131
 10
512.6734507369877
 20
503.8238230658317
 42
0.0
 10
512.6734507369877
 20
513.0573319744008
 42
0.2549362397426607
 97
        0
 92
       22
 72
     1
 73
     1
 93
       22
 10
507.2818174319801
 20
514.1635642014635
 42
-1.0
 10
509.5901946591224
 20
514.1635642014635
 42
-0.3714809898993189
 10
508.606281277499
 20
513.0220048727018
 42
-0.3714809898992699
 10
509.5901946591224
 20
511.8804455439403
 42
-0.4142135623731095
 10
508.4360060455512
 20
510.7262569303692
 42
-0.4142135623730951
 10
509.5901946591224
 20
509.572068316798
 42
-0.3714809898994443
 10
508.6062812774984
 20
508.4305089880365
 42
-0.3714809898994479
 10
509.5901946591224
 20
507.288949659275
 42
-0.4142135623731095
 10
508.4360060455512
 20
506.1347610457038
 42
-0.4142135623730951
 10
509.5901946591224
 20
504.9805724321327
 42
-0.3714809898994531
 10
508.6062812774982
 20
503.8390131033711
 42
-0.3714809898994602
 10
509.5901946591224
 20
502.6974537746095
 42
-1.0
 10
507.2818174319801
 20
502.6974537746095
 42
-0.3714809898994194
 10
508.265730813604
 20
503.8390131033711
 42
-0.3714809898994124
 10
507.2818174319801
 20
504.9805724321327
 42
-0.4142135623731095
 10
508.4360060455512
 20
506.1347610457038
 42
-0.4142135623730951
 10
507.2818174319801
 20
507.288949659275
 42
-0.3714809898994282
 10
508.265730813604
 20
508.4305089880365
 42
-0.3714809898994247
 10
507.2818174319801
 20
509.572068316798
 42
-0.4142135623731095
 10
508.4360060455512
 20
510.7262569303692
 42
-0.4142135623730951
 10
507.2818174319801
 20
511.8804455439403
 42
-0.3714809898995536
 10
508.2657308136047
 20
513.0220048727018
 42
-0.3714809898996026
 97
        0
 92
        6
 72
     1
 73
     1
 93
        2
 10
507.468969601853
 20
514.1635642014635
 42
-1.0
 10
509.4030424892495
 20
514.1635642014635
 42
-1.0
 97
        0
 92
        6
 72
     1
 73
     1
 93
        2
 10
509.4030424892495
 20
511.8804455439403
 42
-1.0
 10
507.468969601853
 20
511.8804455439403
 42
-1.0
 97
        0
 92
       22
 72
     1
 73
     1
 93
       18
 10
511.6734507369877
 20
513.0573319744008
 42
-0.4142135623731095
 10
510.5192621234166
 20
511.9031433608296
 42
-0.4142135623730951
 10
511.6734507369877
 20
510.7489547472584
 42
-0.4142135623731095
 10
510.5192621234166
 20
509.5947661336873
 42
-0.4142135623730951
 10
511.6734507369877
 20
508.4405775201162
 42
-0.4142135623731095
 10
510.5192621234166
 20
507.2863889065451
 42
-0.4142135623730951
 10
511.6734507369877
 20
506.1322002929739
 42
-0.4142135623731095
 10
510.5192621234166
 20
504.9780116794027
 42
-0.4142135623730951
 10
511.6734507369877
 20
503.8238230658317
 42
-1.0
 10
509.3650735098455
 20
503.8238230658317
 42
-0.4142135623731095
 10
510.5192621234166
 20
504.9780116794027
 42
-0.4142135623730951
 10
509.3650735098455
 20
506.1322002929739
 42
-0.4142135623731095
 10
510.5192621234166
 20
507.2863889065451
 42
-0.4142135623730951
 10
509.3650735098455
 20
508.4405775201162
 42
-0.4142135623731095
 10
510.5192621234166
 20
509.5947661336873
 42
-0.4142135623730951
 10
509.3650735098455
 20
510.7489547472584
 42
-0.4142135623731095
 10
510.5192621234166
 20
511.9031433608296
 42
-0.4142135623730951
 10
509.3650735098455
 20
513.0573319744008
 42
-1.0
 97
        0
 92
        6
 72
     1
 73
     1
 93
        2
 10
511.4862985671148
 20
513.0573319744008
 42
-1.0
 10
509.5522256797184
 20
513.0573319744008
 42
-1.0
 97
        0
 92
        6
 72
     1
 73
     1
 93
        2
 10
509.4030424892495
 20
509.572068316798
 42
-1.0
 10
507.468969601853
 20
509.572068316798
 42
-1.0
 97
        0
 92
        6
 72
     1
 73
     1
 93
        2
 10
511.4862985671148
 20
510.7489547472584
 42
-1.0
 10
509.5522256797184
 20
510.7489547472584
 42
-1.0
 97
        0
 92
        6
 72
     1
 73
     1
 93
        2
 10
511.4862985671148
 20
508.4405775201162
 42
-1.0
 10
509.5522256797184
 20
508.4405775201162
 42
-1.0
 97
        0
 92
        6
 72
     1
 73
     1
 93
        2
 10
509.4030424892495
 20
507.288949659275
 42
-1.0
 10
507.468969601853
 20
507.288949659275
 42
-1.0
 97
        0
 92
        6
 72
     1
 73
     1
 93
        2
 10
511.4862985671148
 20
506.1322002929739
 42
-1.0
 10
509.5522256797184
 20
506.1322002929739
 42
-1.0
 97
        0
 92
        6
 72
     1
 73
     1
 93
        2
 10
509.4030424892495
 20
504.9805724321327
 42
-1.0
 10
507.468969601853
 20
504.9805724321327
 42
-1.0
 97
        0
 92
        6
 72
     1
 73
     1
 93
        2
 10
511.4862985671148
 20
503.8238230658317
 42
-1.0
 10
509.5522256797184
 20
503.8238230658317
 42
-1.0
 97
        0
 92
        6
 72
     1
 73
     1
 93
        2
 10
509.4030424892495
 20
502.6974537746095
 42
-1.0
 10
507.468969601853
 20
502.6974537746095
 42
-1.0
 97
        0
 75
     1
 76
     1
 52
0.0
 41
1.0
 77
     0
 78
     4
 53
37.5
 43
157.8307084189973
 44
258.4635505778824
 45
-0.0629933581096082
 46
1.926823769013158
 79
     6
 49
0.0
 49
-1.52
 49
0.0
 49
-1.7
 49
0.0
 49
-1.625
 53
7.499999999999999
 43
157.8307084189973
 44
258.4635505778824
 45
1.769776705267727
 46
2.82214606522974
 79
     6
 49
0.0
 49
-0.8199999999999999
 49
0.0
 49
-1.37
 49
0.0
 49
-0.525
 53
327.5
 43
156.6007084189973
 44
258.4635505778824
 45
3.114141861751495
 46
0.0056590535369649
 79
     6
 49
0.0
 49
-0.5
 49
0.0
 49
-1.8
 49
0.0
 49
-2.35
 53
317.5
 43
156.6007084189973
 44
258.4635505778824
 45
3.006126604572293
 46
0.8776755649342494
 79
     6
 49
0.0
 49
-0.25
 49
0.0
 49
-1.179999999999999
 49
0.0
 49
-1.35
 47
0.0417154768740338
 98
       83
 10
484.8814685173083
 20
469.0829300935129
 10
482.112138798845
 20
469.1893776536598
 10
483.7098356253036
 20
473.1280815193313
 10
483.7098356253036
 20
473.1280815193313
 10
483.7098356253036
 20
473.1280815193313
 10
483.7098356253036
 20
473.1280815193313
 10
483.7098356253036
 20
473.1280815193313
 10
483.7098356253036
 20
473.1280815193313
 10
484.8814685173083
 20
481.4312915029477
 10
484.8814685173083
 20
481.4312915029477
 10
484.8814685173083
 20
481.4312915029477
 10
484.8814685173083
 20
481.4312915029477
 10
484.8814685173083
 20
481.4312915029477
 10
484.8814685173083
 20
481.4312915029477
 10
485.7335963862124
 20
490.1603157505233
 10
485.7335963862124
 20
490.1603157505233
 10
485.7335963862124
 20
490.1603157505233
 10
485.7335963862124
 20
490.1603157505233
 10
485.7335963862124
 20
490.1603157505233
 10
485.7335963862124
 20
490.1603157505233
 10
485.7335963862124
 20
490.1603157505233
 10
485.7335963862124
 20
490.1603157505233
 10
507.3558075291976
 20
469.0829300935129
 10
509.5925879922642
 20
469.1893776536598
 10
510.1251617777952
 20
473.5538837716048
 10
510.1251617777952
 20
473.5538837716048
 10
510.1251617777952
 20
473.5538837716048
 10
510.1251617777952
 20
473.5538837716048
 10
510.1251617777952
 20
473.5538837716048
 10
510.1251617777952
 20
473.5538837716048
 10
509.9121175454992
 20
481.6441986349273
 10
509.9121175454992
 20
481.6441986349273
 10
509.9121175454992
 20
481.6441986349273
 10
509.9121175454992
 20
481.6441986349273
 10
509.9121175454992
 20
481.6441986349273
 10
509.9121175454992
 20
481.6441986349273
 10
511.1902848187192
 20
490.2667753223559
 10
510.2316716288724
 20
501.9764393592232
 10
510.2316716288724
 20
501.9764393592232
 10
510.2316716288724
 20
501.9764393592232
 10
510.2316716288724
 20
501.9764393592232
 10
510.2316716288724
 20
501.9764393592232
 10
510.2316716288724
 20
501.9764393592232
 10
510.2316716288724
 20
501.9764393592232
 10
510.2316716288724
 20
501.9764393592232
 10
510.2316716288724
 20
501.9764393592232
 10
510.2316716288724
 20
501.9764393592232
 10
510.2316716288724
 20
501.9764393592232
 10
510.2316716288724
 20
501.9764393592232
 10
510.2316716288724
 20
501.9764393592232
 10
510.8707552654841
 20
497.9312759217191
 10
512.2554078596468
 20
518.1570570741805
 10
506.1841501070548
 20
520.2860923589214
 10
487.6508227659059
 20
518.6893188982867
 10
480.5144174422521
 20
520.4989874792172
 10
486.7701663486832
 20
508.2458186802723
 10
486.7701663486832
 20
508.2458186802723
 10
486.7701663486832
 20
508.2458186802723
 10
486.7701663486832
 20
508.2458186802723
 10
486.7701663486832
 20
508.2458186802723
 10
486.7701663486832
 20
508.2458186802723
 10
486.7701663486832
 20
508.2458186802723
 10
486.7701663486832
 20
508.2458186802723
 10
486.7701663486832
 20
508.2458186802723
 10
486.7701663486832
 20
508.2458186802723
 10
486.7701663486832
 20
508.2458186802723
 10
486.7701663486832
 20
508.2458186802723
 10
486.7701663486832
 20
508.2458186802723
 10
486.7701663486832
 20
508.2458186802723
 10
506.888729207133
 20
513.2099601683494
 10
506.888729207133
 20
513.2099601683494
 10
506.888729207133
 20
513.2099601683494
 10
506.888729207133
 20
513.2099601683494
 10
506.888729207133
 20
513.2099601683494
 10
506.888729207133
 20
513.2099601683494
 10
506.888729207133
 20
513.2099601683494
 10
506.888729207133
 20
513.2099601683494
 10
506.888729207133
 20
513.2099601683494
 10
506.888729207133
 20
513.2099601683494
 10
506.888729207133
 20
513.2099601683494
 10
506.888729207133
 20
513.2099601683494
 10
506.888729207133
 20
513.2099601683494
 10
506.888729207133
 20
513.2099601683494
1001
GradientColor1ACI
1070
     5
1001
GradientColor2ACI
1070
     2
1001
ACAD
1010
0.0
1020
0.0
1030
0.0
  0
CIRCLE
  5
71E
330
1F
100
AcDbEntity
  8
防火材
  6
Continuous
370
    13
100
AcDbCircle
 10
484.8944540831211
 20
475.3909491494655
 30
0.0
 40
1.154188613571108
  0
ARC
  5
71F
330
1F
100
AcDbEntity
  8
防火材
  6
Continuous
370
    13
100
AcDbCircle
 10
484.8958205151027
 20
475.3909644430385
 30
0.0
 40
2.153556228410658
100
AcDbArc
 50
298.1912156353939
 51
63.09127865354723
  0
CIRCLE
  5
720
330
1F
100
AcDbEntity
  8
防火材
  6
Continuous
370
    13
100
AcDbCircle
 10
482.8111980052558
 20
474.2393212886244
 30
0.0
 40
1.154188613571108
  0
ARC
  5
721
330
1F
100
AcDbEntity
  8
防火材
  6
Continuous
370
    13
100
AcDbCircle
 10
482.8111980052558
 20
474.2645798582434
 30
0.0
 40
2.154188613571108
100
AcDbArc
 50
180.0
 51
300.5477573061052
  0
CIRCLE
  5
722
330
1F
100
AcDbEntity
  8
防火材
  6
Continuous
370
    13
100
AcDbCircle
 10
482.8111980052558
 20
476.5476985157666
 30
0.0
 40
1.154188613571108
  0
ARC
  5
723
330
1F
100
AcDbEntity
  8
防火材
  6
Continuous
370
    13
100
AcDbCircle
 10
482.8111980052558
 20
476.5476985157666
 30
0.0
 40
2.154188613571108
100
AcDbArc
 50
60.92230986411533
 51
180.0
  0
LINE
  5
724
330
1F
100
AcDbEntity
  8
防火材
  6
Continuous
370
    13
100
AcDbLine
 10
481.6570093916846
 20
478.3665930226422
 30
0.0
 11
481.6570093916846
 21
480.5437779291827
 31
0.0
  0
LINE
  5
725
330
1F
100
AcDbEntity
  8
防火材
  6
Continuous
370
    13
100
AcDbLine
 10
481.6570093916846
 20
486.464685600457
 30
0.0
 11
481.6570093916846
 21
491.3248086118729
 31
0.0
  0
LINE
  5
726
330
1F
100
AcDbEntity
  8
防火材
  6
Continuous
370
    13
100
AcDbLine
 10
481.6570093916846
 20
496.9095874052156
 30
0.0
 11
481.6570093916846
 21
501.0427534510006
 31
0.0
  0
LINE
  5
727
330
1F
100
AcDbEntity
  8
防火材
  6
Continuous
370
    13
100
AcDbLine
 10
481.6570093916846
 20
515.8182645250725
 30
0.0
 11
481.6570093916846
 21
518.5282629544782
 31
0.0
  0
CIRCLE
  5
728
330
1F
100
AcDbEntity
  8
防火材
  6
Continuous
370
    13
100
AcDbCircle
 10
486.5000092547139
 20
494.2823900612784
 30
0.0
 40
1.154188613571108
  0
CIRCLE
  5
729
330
1F
100
AcDbEntity
  8
防火材
  6
Continuous
370
    13
100
AcDbCircle
 10
484.4167531768484
 20
493.1560207700563
 30
0.0
 40
1.154188613571108
  0
CIRCLE
  5
72A
330
1F
100
AcDbEntity
  8
防火材
  6
Continuous
370
    13
100
AcDbCircle
 10
484.4167531768484
 20
495.4391394275794
 30
0.0
 40
1.154188613571108
  0
CIRCLE
  5
72B
330
1F
100
AcDbEntity
  8
防火材
  6
Continuous
370
    13
100
AcDbCircle
 10
485.1195752323978
 20
503.8238230658317
 30
0.0
 40
1.154188613571108
  0
ARC
  5
72C
330
1F
100
AcDbEntity
  8
防火材
  6
Continuous
370
    13
100
AcDbCircle
 10
485.1195752323978
 20
503.8238230658317
 30
0.0
 40
2.154188613571108
100
AcDbArc
 50
297.1313683321974
 51
0.0
  0
CIRCLE
  5
72D
330
1F
100
AcDbEntity
  8
防火材
  6
Continuous
370
    13
100
AcDbCircle
 10
483.0363191545325
 20
502.6974537746095
 30
0.0
 40
1.154188613571108
  0
ARC
  5
72E
330
1F
100
AcDbEntity
  8
防火材
  6
Continuous
370
    13
100
AcDbCircle
 10
483.0363191545325
 20
502.6974537746095
 30
0.0
 40
2.154188613571108
100
AcDbArc
 50
180.0
 51
303.3314733055515
  0
CIRCLE
  5
72F
330
1F
100
AcDbEntity
  8
防火材
  6
Continuous
370
    13
100
AcDbCircle
 10
483.0363191545325
 20
504.9805724321327
 30
0.0
 40
1.154188613571108
  0
CIRCLE
  5
730
330
1F
100
AcDbEntity
  8
防火材
  6
Continuous
370
    13
100
AcDbCircle
 10
483.0363191545325
 20
507.288949659275
 30
0.0
 40
1.154188613571108
  0
CIRCLE
  5
731
330
1F
100
AcDbEntity
  8
防火材
  6
Continuous
370
    13
100
AcDbCircle
 10
483.0363191545325
 20
509.572068316798
 30
0.0
 40
1.154188613571108
  0
CIRCLE
  5
732
330
1F
100
AcDbEntity
  8
防火材
  6
Continuous
370
    13
100
AcDbCircle
 10
483.0363191545325
 20
511.8804455439403
 30
0.0
 40
1.154188613571108
  0
CIRCLE
  5
733
330
1F
100
AcDbEntity
  8
防火材
  6
Continuous
370
    13
100
AcDbCircle
 10
483.0363191545325
 20
514.1635642014635
 30
0.0
 40
1.154188613571108
  0
ARC
  5
734
330
1F
100
AcDbEntity
  8
防火材
  6
Continuous
370
    13
100
AcDbCircle
 10
483.0363191545325
 20
514.1635642014635
 30
0.0
 40
2.154188613571108
100
AcDbArc
 50
58.99550277267369
 51
180.0
  0
CIRCLE
  5
735
330
1F
100
AcDbEntity
  8
防火材
  6
Continuous
370
    13
100
AcDbCircle
 10
485.1195752323978
 20
506.1322002929739
 30
0.0
 40
1.154188613571108
  0
CIRCLE
  5
736
330
1F
100
AcDbEntity
  8
防火材
  6
Continuous
370
    13
100
AcDbCircle
 10
485.1195752323978
 20
508.4405775201162
 30
0.0
 40
1.154188613571108
  0
CIRCLE
  5
737
330
1F
100
AcDbEntity
  8
防火材
  6
Continuous
370
    13
100
AcDbCircle
 10
485.1195752323978
 20
510.7489547472584
 30
0.0
 40
1.154188613571108
  0
CIRCLE
  5
738
330
1F
100
AcDbEntity
  8
防火材
  6
Continuous
370
    13
100
AcDbCircle
 10
485.1195752323978
 20
513.0573319744008
 30
0.0
 40
1.154188613571108
  0
ARC
  5
739
330
1F
100
AcDbEntity
  8
防火材
  6
Continuous
370
    13
100
AcDbCircle
 10
485.1195752323978
 20
513.0573319744008
 30
0.0
 40
2.154188613571108
100
AcDbArc
 50
0.0
 51
66.63643403825658
  0
CIRCLE
  5
73A
330
1F
100
AcDbEntity
  8
防火材
  6
Continuous
370
    13
100
AcDbCircle
 10
485.0557286630057
 20
494.1171980085442
 30
0.0
 40
3.398719271321198
  0
CIRCLE
  5
73B
330
1F
100
AcDbEntity
  8
防火材
  6
Continuous
370
    13
100
AcDbCircle
 10
485.0557286630057
 20
494.1171980085442
 30
0.0
 40
4.398719271321198
  0
LINE
  5
73C
330
1F
100
AcDbEntity
  8
防火材
  6
Continuous
370
    13
100
AcDbLine
 10
480.6570093916845
 20
476.5476985157666
 30
0.0
 11
480.6570093916845
 21
474.2645798582434
 31
0.0
  0
CIRCLE
  5
73D
330
1F
100
AcDbEntity
  8
防火材
  6
Continuous
370
    13
100
AcDbCircle
 10
482.8111980052558
 20
476.5476985157666
 30
0.0
 40
0.9489402716462791
  0
CIRCLE
  5
73E
330
1F
100
AcDbEntity
  8
防火材
  6
Continuous
370
    13
100
AcDbCircle
 10
482.8111980052558
 20
474.2393212886244
 30
0.0
 40
0.9489402716462791
  0
CIRCLE
  5
73F
330
1F
100
AcDbEntity
  8
防火材
  6
Continuous
370
    13
100
AcDbCircle
 10
484.8944540831211
 20
475.3909491494655
 30
0.0
 40
0.9489402716462791
  0
LINE
  5
740
330
1F
100
AcDbEntity
  8
防火材
  6
Continuous
370
    13
100
AcDbLine
 10
483.8581231452774
 20
478.4303764845201
 30
0.0
 11
485.8704564267331
 21
477.3113522342637
 31
0.0
  0
LINE
  5
741
330
1F
100
AcDbEntity
  8
防火材
  6
Continuous
370
    13
100
AcDbLine
 10
485.9131941618675
 20
473.492871902672
 30
0.0
 11
483.9060780981071
 21
472.4093800940355
 31
0.0
  0
CIRCLE
  5
742
330
1F
100
AcDbEntity
  8
防火材
  6
Continuous
370
    13
100
AcDbCircle
 10
485.0557287682554
 20
494.1171979385759
 30
0.0
 40
3.035054265576889
  0
CIRCLE
  5
743
330
1F
100
AcDbEntity
  8
防火材
  6
Continuous
370
    13
100
AcDbCircle
 10
484.4167531768484
 20
495.4391394275794
 30
0.0
 40
0.9490119867655266
  0
CIRCLE
  5
744
330
1F
100
AcDbEntity
  8
防火材
  6
Continuous
370
    13
100
AcDbCircle
 10
484.4167531768484
 20
493.1560207700563
 30
0.0
 40
0.9490119867655266
  0
CIRCLE
  5
745
330
1F
100
AcDbEntity
  8
防火材
  6
Continuous
370
    13
100
AcDbCircle
 10
486.5000092547139
 20
494.2823900612784
 30
0.0
 40
0.9490119867655266
  0
LINE
  5
746
330
1F
100
AcDbEntity
  8
防火材
  6
Continuous
370
    13
100
AcDbLine
 10
487.2737638459691
 20
503.8238230658317
 30
0.0
 11
487.2737638459691
 21
513.0573319744008
 31
0.0
  0
LINE
  5
747
330
1F
100
AcDbEntity
  8
防火材
  6
Continuous
370
    13
100
AcDbLine
 10
480.8821305409614
 20
514.1635642014635
 30
0.0
 11
480.8821305409614
 21
502.6974537746095
 31
0.0
  0
LINE
  5
748
330
1F
100
AcDbEntity
  8
防火材
  6
Continuous
370
    13
100
AcDbLine
 10
483.9518465496894
 20
516.1135227065493
 30
0.0
 11
486.2862486735176
 21
514.8682438067728
 31
0.0
  0
LINE
  5
749
330
1F
100
AcDbEntity
  8
防火材
  6
Continuous
370
    13
100
AcDbLine
 10
484.2200067095748
 20
500.8976170167679
 30
0.0
 11
486.1019546335969
 21
501.9066743248782
 31
0.0
  0
CIRCLE
  5
74A
330
1F
100
AcDbEntity
  8
防火材
  6
Continuous
370
    13
100
AcDbCircle
 10
483.0363191545325
 20
502.6974537746095
 30
0.0
 40
0.9670364436982197
  0
CIRCLE
  5
74B
330
1F
100
AcDbEntity
  8
防火材
  6
Continuous
370
    13
100
AcDbCircle
 10
485.1195752323978
 20
503.8238230658317
 30
0.0
 40
0.9670364436982197
  0
CIRCLE
  5
74C
330
1F
100
AcDbEntity
  8
防火材
  6
Continuous
370
    13
100
AcDbCircle
 10
483.0363191545325
 20
504.9805724321327
 30
0.0
 40
0.9670364436982197
  0
CIRCLE
  5
74D
330
1F
100
AcDbEntity
  8
防火材
  6
Continuous
370
    13
100
AcDbCircle
 10
485.1195752323978
 20
506.1322002929739
 30
0.0
 40
0.9670364436982197
  0
CIRCLE
  5
74E
330
1F
100
AcDbEntity
  8
防火材
  6
Continuous
370
    13
100
AcDbCircle
 10
485.1195752323978
 20
508.4405775201162
 30
0.0
 40
0.9670364436982197
  0
CIRCLE
  5
74F
330
1F
100
AcDbEntity
  8
防火材
  6
Continuous
370
    13
100
AcDbCircle
 10
483.0363191545325
 20
507.288949659275
 30
0.0
 40
0.9670364436982197
  0
CIRCLE
  5
750
330
1F
100
AcDbEntity
  8
防火材
  6
Continuous
370
    13
100
AcDbCircle
 10
485.1195752323978
 20
510.7489547472584
 30
0.0
 40
0.9670364436982197
  0
CIRCLE
  5
751
330
1F
100
AcDbEntity
  8
防火材
  6
Continuous
370
    13
100
AcDbCircle
 10
483.0363191545325
 20
511.8804455439403
 30
0.0
 40
0.9670364436982197
  0
CIRCLE
  5
752
330
1F
100
AcDbEntity
  8
防火材
  6
Continuous
370
    13
100
AcDbCircle
 10
483.0363191545325
 20
509.572068316798
 30
0.0
 40
0.9670364436982197
  0
CIRCLE
  5
753
330
1F
100
AcDbEntity
  8
防火材
  6
Continuous
370
    13
100
AcDbCircle
 10
485.1195752323978
 20
513.0573319744008
 30
0.0
 40
0.9670364436982197
  0
CIRCLE
  5
754
330
1F
100
AcDbEntity
  8
防火材
  6
Continuous
370
    13
100
AcDbCircle
 10
483.0363191545325
 20
514.1635642014635
 30
0.0
 40
0.9670364436982197
  0
CIRCLE
  5
755
330
1F
100
AcDbEntity
  8
防火材
  6
Continuous
370
    13
100
AcDbCircle
 10
484.8944540831211
 20
483.4890417272804
 30
0.0
 40
1.154188613571108
  0
ARC
  5
756
330
1F
100
AcDbEntity
  8
防火材
  6
Continuous
370
    13
100
AcDbCircle
 10
484.8958205151027
 20
483.4890570208535
 30
0.0
 40
2.153556228410658
100
AcDbArc
 50
298.1912156353939
 51
63.09127865354723
  0
CIRCLE
  5
757
330
1F
100
AcDbEntity
  8
防火材
  6
Continuous
370
    13
100
AcDbCircle
 10
482.8111980052558
 20
482.3374138664393
 30
0.0
 40
1.154188613571108
  0
ARC
  5
758
330
1F
100
AcDbEntity
  8
防火材
  6
Continuous
370
    13
100
AcDbCircle
 10
482.8111980052558
 20
482.3626724360583
 30
0.0
 40
2.154188613571108
100
AcDbArc
 50
180.0
 51
300.5477573061052
  0
CIRCLE
  5
759
330
1F
100
AcDbEntity
  8
防火材
  6
Continuous
370
    13
100
AcDbCircle
 10
482.8111980052558
 20
484.6457910935814
 30
0.0
 40
1.154188613571108
  0
ARC
  5
75A
330
1F
100
AcDbEntity
  8
防火材
  6
Continuous
370
    13
100
AcDbCircle
 10
482.8111980052558
 20
484.6457910935814
 30
0.0
 40
2.154188613571108
100
AcDbArc
 50
60.92230986411533
 51
180.0
  0
LINE
  5
75B
330
1F
100
AcDbEntity
  8
防火材
  6
Continuous
370
    13
100
AcDbLine
 10
480.6570093916845
 20
484.6457910935814
 30
0.0
 11
480.6570093916845
 21
482.3626724360583
 31
0.0
  0
CIRCLE
  5
75C
330
1F
100
AcDbEntity
  8
防火材
  6
Continuous
370
    13
100
AcDbCircle
 10
482.8111980052558
 20
484.6457910935814
 30
0.0
 40
0.9489402716462791
  0
CIRCLE
  5
75D
330
1F
100
AcDbEntity
  8
防火材
  6
Continuous
370
    13
100
AcDbCircle
 10
482.8111980052558
 20
482.3374138664393
 30
0.0
 40
0.9489402716462791
  0
CIRCLE
  5
75E
330
1F
100
AcDbEntity
  8
防火材
  6
Continuous
370
    13
100
AcDbCircle
 10
484.8944540831211
 20
483.4890417272804
 30
0.0
 40
0.9489402716462791
  0
LINE
  5
75F
330
1F
100
AcDbEntity
  8
防火材
  6
Continuous
370
    13
100
AcDbLine
 10
483.8581231452774
 20
486.528469062335
 30
0.0
 11
485.8704564267331
 21
485.4094448120786
 31
0.0
  0
LINE
  5
760
330
1F
100
AcDbEntity
  8
防火材
  6
Continuous
370
    13
100
AcDbLine
 10
485.9131941618675
 20
481.590964480487
 30
0.0
 11
483.9060780981071
 21
480.5074726718504
 31
0.0
  0
CIRCLE
  5
761
330
1F
100
AcDbEntity
  8
防火材
  6
Continuous
370
    13
100
AcDbCircle
 10
510.2941409741397
 20
475.3909491494655
 30
0.0
 40
1.154188613571108
  0
ARC
  5
762
330
1F
100
AcDbEntity
  8
防火材
  6
Continuous
370
    13
100
AcDbCircle
 10
510.2955074061214
 20
475.3909644430385
 30
0.0
 40
2.153556228410658
100
AcDbArc
 50
298.1912156353939
 51
63.09127865354723
  0
CIRCLE
  5
763
330
1F
100
AcDbEntity
  8
防火材
  6
Continuous
370
    13
100
AcDbCircle
 10
508.2108848962743
 20
474.2393212886243
 30
0.0
 40
1.154188613571108
  0
ARC
  5
764
330
1F
100
AcDbEntity
  8
防火材
  6
Continuous
370
    13
100
AcDbCircle
 10
508.2108848962743
 20
474.2645798582434
 30
0.0
 40
2.154188613571108
100
AcDbArc
 50
180.0
 51
300.5477573061052
  0
CIRCLE
  5
765
330
1F
100
AcDbEntity
  8
防火材
  6
Continuous
370
    13
100
AcDbCircle
 10
508.2108848962743
 20
476.5476985157666
 30
0.0
 40
1.154188613571108
  0
ARC
  5
766
330
1F
100
AcDbEntity
  8
防火材
  6
Continuous
370
    13
100
AcDbCircle
 10
508.2108848962743
 20
476.5476985157666
 30
0.0
 40
2.154188613571108
100
AcDbArc
 50
60.92230986411533
 51
180.0
  0
LINE
  5
767
330
1F
100
AcDbEntity
  8
防火材
  6
Continuous
370
    13
100
AcDbLine
 10
507.0566962827033
 20
478.3665930226422
 30
0.0
 11
507.0566962827033
 21
480.5437779291827
 31
0.0
  0
LINE
  5
768
330
1F
100
AcDbEntity
  8
防火材
  6
Continuous
370
    13
100
AcDbLine
 10
507.0566962827033
 20
486.464685600457
 30
0.0
 11
507.0566962827033
 21
491.3248086118728
 31
0.0
  0
LINE
  5
769
330
1F
100
AcDbEntity
  8
防火材
  6
Continuous
370
    13
100
AcDbLine
 10
507.0566962827033
 20
496.9095874052155
 30
0.0
 11
507.0566962827033
 21
501.0427534510005
 31
0.0
  0
CIRCLE
  5
76A
330
1F
100
AcDbEntity
  8
防火材
  6
Continuous
370
    13
100
AcDbCircle
 10
511.8996961457325
 20
494.2823900612784
 30
0.0
 40
1.154188613571108
  0
CIRCLE
  5
76B
330
1F
100
AcDbEntity
  8
防火材
  6
Continuous
370
    13
100
AcDbCircle
 10
509.8164400678672
 20
493.1560207700563
 30
0.0
 40
1.154188613571108
  0
CIRCLE
  5
76C
330
1F
100
AcDbEntity
  8
防火材
  6
Continuous
370
    13
100
AcDbCircle
 10
509.8164400678672
 20
495.4391394275794
 30
0.0
 40
1.154188613571108
  0
CIRCLE
  5
76D
330
1F
100
AcDbEntity
  8
防火材
  6
Continuous
370
    13
100
AcDbCircle
 10
510.5192621234166
 20
503.8238230658317
 30
0.0
 40
1.154188613571108
  0
ARC
  5
76E
330
1F
100
AcDbEntity
  8
防火材
  6
Continuous
370
    13
100
AcDbCircle
 10
510.5192621234166
 20
503.8238230658317
 30
0.0
 40
2.154188613571108
100
AcDbArc
 50
297.1313683321974
 51
0.0
  0
CIRCLE
  5
76F
330
1F
100
AcDbEntity
  8
防火材
  6
Continuous
370
    13
100
AcDbCircle
 10
508.4360060455512
 20
502.6974537746095
 30
0.0
 40
1.154188613571108
  0
ARC
  5
770
330
1F
100
AcDbEntity
  8
防火材
  6
Continuous
370
    13
100
AcDbCircle
 10
508.4360060455512
 20
502.6974537746095
 30
0.0
 40
2.154188613571108
100
AcDbArc
 50
180.0
 51
303.3314733055515
  0
CIRCLE
  5
771
330
1F
100
AcDbEntity
  8
防火材
  6
Continuous
370
    13
100
AcDbCircle
 10
508.4360060455512
 20
504.9805724321327
 30
0.0
 40
1.154188613571108
  0
CIRCLE
  5
772
330
1F
100
AcDbEntity
  8
防火材
  6
Continuous
370
    13
100
AcDbCircle
 10
508.4360060455512
 20
507.288949659275
 30
0.0
 40
1.154188613571108
  0
CIRCLE
  5
773
330
1F
100
AcDbEntity
  8
防火材
  6
Continuous
370
    13
100
AcDbCircle
 10
508.4360060455512
 20
509.572068316798
 30
0.0
 40
1.154188613571108
  0
CIRCLE
  5
774
330
1F
100
AcDbEntity
  8
防火材
  6
Continuous
370
    13
100
AcDbCircle
 10
508.4360060455512
 20
511.8804455439403
 30
0.0
 40
1.154188613571108
  0
CIRCLE
  5
775
330
1F
100
AcDbEntity
  8
防火材
  6
Continuous
370
    13
100
AcDbCircle
 10
508.4360060455512
 20
514.1635642014635
 30
0.0
 40
1.154188613571108
  0
ARC
  5
776
330
1F
100
AcDbEntity
  8
防火材
  6
Continuous
370
    13
100
AcDbCircle
 10
508.4360060455512
 20
514.1635642014635
 30
0.0
 40
2.154188613571108
100
AcDbArc
 50
58.99550277267369
 51
180.0
  0
CIRCLE
  5
777
330
1F
100
AcDbEntity
  8
防火材
  6
Continuous
370
    13
100
AcDbCircle
 10
510.5192621234166
 20
506.1322002929739
 30
0.0
 40
1.154188613571108
  0
CIRCLE
  5
778
330
1F
100
AcDbEntity
  8
防火材
  6
Continuous
370
    13
100
AcDbCircle
 10
510.5192621234166
 20
508.4405775201162
 30
0.0
 40
1.154188613571108
  0
CIRCLE
  5
779
330
1F
100
AcDbEntity
  8
防火材
  6
Continuous
370
    13
100
AcDbCircle
 10
510.5192621234166
 20
510.7489547472584
 30
0.0
 40
1.154188613571108
  0
CIRCLE
  5
77A
330
1F
100
AcDbEntity
  8
防火材
  6
Continuous
370
    13
100
AcDbCircle
 10
510.5192621234166
 20
513.0573319744008
 30
0.0
 40
1.154188613571108
  0
ARC
  5
77B
330
1F
100
AcDbEntity
  8
防火材
  6
Continuous
370
    13
100
AcDbCircle
 10
510.5192621234166
 20
513.0573319744008
 30
0.0
 40
2.154188613571108
100
AcDbArc
 50
0.0
 51
66.63643403825658
  0
CIRCLE
  5
77C
330
1F
100
AcDbEntity
  8
防火材
  6
Continuous
370
    13
100
AcDbCircle
 10
510.4554155540244
 20
494.1171980085441
 30
0.0
 40
3.398719271321198
  0
CIRCLE
  5
77D
330
1F
100
AcDbEntity
  8
防火材
  6
Continuous
370
    13
100
AcDbCircle
 10
510.4554155540244
 20
494.1171980085441
 30
0.0
 40
4.398719271321198
  0
LINE
  5
77E
330
1F
100
AcDbEntity
  8
防火材
  6
Continuous
370
    13
100
AcDbLine
 10
506.0566962827033
 20
476.5476985157666
 30
0.0
 11
506.0566962827033
 21
474.2645798582434
 31
0.0
  0
CIRCLE
  5
77F
330
1F
100
AcDbEntity
  8
防火材
  6
Continuous
370
    13
100
AcDbCircle
 10
508.2108848962743
 20
476.5476985157666
 30
0.0
 40
0.9489402716462791
  0
CIRCLE
  5
780
330
1F
100
AcDbEntity
  8
防火材
  6
Continuous
370
    13
100
AcDbCircle
 10
508.2108848962743
 20
474.2393212886243
 30
0.0
 40
0.9489402716462791
  0
CIRCLE
  5
781
330
1F
100
AcDbEntity
  8
防火材
  6
Continuous
370
    13
100
AcDbCircle
 10
510.2941409741397
 20
475.3909491494655
 30
0.0
 40
0.9489402716462791
  0
LINE
  5
782
330
1F
100
AcDbEntity
  8
防火材
  6
Continuous
370
    13
100
AcDbLine
 10
509.2578100362959
 20
478.4303764845201
 30
0.0
 11
511.2701433177517
 21
477.3113522342637
 31
0.0
  0
LINE
  5
783
330
1F
100
AcDbEntity
  8
防火材
  6
Continuous
370
    13
100
AcDbLine
 10
511.3128810528862
 20
473.492871902672
 30
0.0
 11
509.3057649891258
 21
472.4093800940355
 31
0.0
  0
CIRCLE
  5
784
330
1F
100
AcDbEntity
  8
防火材
  6
Continuous
370
    13
100
AcDbCircle
 10
510.455415659274
 20
494.1171979385759
 30
0.0
 40
3.035054265576889
  0
CIRCLE
  5
785
330
1F
100
AcDbEntity
  8
防火材
  6
Continuous
370
    13
100
AcDbCircle
 10
509.8164400678672
 20
495.4391394275794
 30
0.0
 40
0.9490119867655266
  0
CIRCLE
  5
786
330
1F
100
AcDbEntity
  8
防火材
  6
Continuous
370
    13
100
AcDbCircle
 10
509.8164400678672
 20
493.1560207700563
 30
0.0
 40
0.9490119867655266
  0
CIRCLE
  5
787
330
1F
100
AcDbEntity
  8
防火材
  6
Continuous
370
    13
100
AcDbCircle
 10
511.8996961457325
 20
494.2823900612784
 30
0.0
 40
0.9490119867655266
  0
LINE
  5
788
330
1F
100
AcDbEntity
  8
防火材
  6
Continuous
370
    13
100
AcDbLine
 10
512.6734507369876
 20
503.8238230658317
 30
0.0
 11
512.6734507369876
 21
513.0573319744008
 31
0.0
  0
LINE
  5
789
330
1F
100
AcDbEntity
  8
防火材
  6
Continuous
370
    13
100
AcDbLine
 10
506.2818174319801
 20
514.1635642014635
 30
0.0
 11
506.2818174319801
 21
502.6974537746095
 31
0.0
  0
LINE
  5
78A
330
1F
100
AcDbEntity
  8
防火材
  6
Continuous
370
    13
100
AcDbLine
 10
509.3515334407081
 20
516.1135227065493
 30
0.0
 11
511.6859355645362
 21
514.8682438067728
 31
0.0
  0
LINE
  5
78B
330
1F
100
AcDbEntity
  8
防火材
  6
Continuous
370
    13
100
AcDbLine
 10
509.6196936005933
 20
500.8976170167679
 30
0.0
 11
511.5016415246154
 21
501.9066743248782
 31
0.0
  0
CIRCLE
  5
78C
330
1F
100
AcDbEntity
  8
防火材
  6
Continuous
370
    13
100
AcDbCircle
 10
508.4360060455512
 20
502.6974537746095
 30
0.0
 40
0.9670364436982197
  0
CIRCLE
  5
78D
330
1F
100
AcDbEntity
  8
防火材
  6
Continuous
370
    13
100
AcDbCircle
 10
510.5192621234166
 20
503.8238230658317
 30
0.0
 40
0.9670364436982197
  0
CIRCLE
  5
78E
330
1F
100
AcDbEntity
  8
防火材
  6
Continuous
370
    13
100
AcDbCircle
 10
508.4360060455512
 20
504.9805724321327
 30
0.0
 40
0.9670364436982197
  0
CIRCLE
  5
78F
330
1F
100
AcDbEntity
  8
防火材
  6
Continuous
370
    13
100
AcDbCircle
 10
510.5192621234166
 20
506.1322002929739
 30
0.0
 40
0.9670364436982197
  0
CIRCLE
  5
790
330
1F
100
AcDbEntity
  8
防火材
  6
Continuous
370
    13
100
AcDbCircle
 10
510.5192621234166
 20
508.4405775201162
 30
0.0
 40
0.9670364436982197
  0
CIRCLE
  5
791
330
1F
100
AcDbEntity
  8
防火材
  6
Continuous
370
    13
100
AcDbCircle
 10
508.4360060455512
 20
507.288949659275
 30
0.0
 40
0.9670364436982197
  0
CIRCLE
  5
792
330
1F
100
AcDbEntity
  8
防火材
  6
Continuous
370
    13
100
AcDbCircle
 10
510.5192621234166
 20
510.7489547472584
 30
0.0
 40
0.9670364436982197
  0
CIRCLE
  5
793
330
1F
100
AcDbEntity
  8
防火材
  6
Continuous
370
    13
100
AcDbCircle
 10
508.4360060455512
 20
511.8804455439403
 30
0.0
 40
0.9670364436982197
  0
CIRCLE
  5
794
330
1F
100
AcDbEntity
  8
防火材
  6
Continuous
370
    13
100
AcDbCircle
 10
508.4360060455512
 20
509.572068316798
 30
0.0
 40
0.9670364436982197
  0
CIRCLE
  5
795
330
1F
100
AcDbEntity
  8
防火材
  6
Continuous
370
    13
100
AcDbCircle
 10
510.5192621234166
 20
513.0573319744008
 30
0.0
 40
0.9670364436982197
  0
CIRCLE
  5
796
330
1F
100
AcDbEntity
  8
防火材
  6
Continuous
370
    13
100
AcDbCircle
 10
508.4360060455512
 20
514.1635642014635
 30
0.0
 40
0.9670364436982197
  0
CIRCLE
  5
797
330
1F
100
AcDbEntity
  8
防火材
  6
Continuous
370
    13
100
AcDbCircle
 10
510.2941409741397
 20
483.4890417272804
 30
0.0
 40
1.154188613571108
  0
ARC
  5
798
330
1F
100
AcDbEntity
  8
防火材
  6
Continuous
370
    13
100
AcDbCircle
 10
510.2955074061214
 20
483.4890570208535
 30
0.0
 40
2.153556228410658
100
AcDbArc
 50
298.1912156353939
 51
63.09127865354723
  0
CIRCLE
  5
799
330
1F
100
AcDbEntity
  8
防火材
  6
Continuous
370
    13
100
AcDbCircle
 10
508.2108848962743
 20
482.3374138664392
 30
0.0
 40
1.154188613571108
  0
ARC
  5
79A
330
1F
100
AcDbEntity
  8
防火材
  6
Continuous
370
    13
100
AcDbCircle
 10
508.2108848962743
 20
482.3626724360583
 30
0.0
 40
2.154188613571108
100
AcDbArc
 50
180.0
 51
300.5477573061052
  0
CIRCLE
  5
79B
330
1F
100
AcDbEntity
  8
防火材
  6
Continuous
370
    13
100
AcDbCircle
 10
508.2108848962743
 20
484.6457910935814
 30
0.0
 40
1.154188613571108
  0
ARC
  5
79C
330
1F
100
AcDbEntity
  8
防火材
  6
Continuous
370
    13
100
AcDbCircle
 10
508.2108848962743
 20
484.6457910935814
 30
0.0
 40
2.154188613571108
100
AcDbArc
 50
60.92230986411533
 51
180.0
  0
LINE
  5
79D
330
1F
100
AcDbEntity
  8
防火材
  6
Continuous
370
    13
100
AcDbLine
 10
506.0566962827033
 20
484.6457910935814
 30
0.0
 11
506.0566962827033
 21
482.3626724360583
 31
0.0
  0
CIRCLE
  5
79E
330
1F
100
AcDbEntity
  8
防火材
  6
Continuous
370
    13
100
AcDbCircle
 10
508.2108848962743
 20
484.6457910935814
 30
0.0
 40
0.9489402716462791
  0
CIRCLE
  5
79F
330
1F
100
AcDbEntity
  8
防火材
  6
Continuous
370
    13
100
AcDbCircle
 10
508.2108848962743
 20
482.3374138664392
 30
0.0
 40
0.9489402716462791
  0
CIRCLE
  5
7A0
330
1F
100
AcDbEntity
  8
防火材
  6
Continuous
370
    13
100
AcDbCircle
 10
510.2941409741397
 20
483.4890417272804
 30
0.0
 40
0.9489402716462791
  0
LINE
  5
7A1
330
1F
100
AcDbEntity
  8
防火材
  6
Continuous
370
    13
100
AcDbLine
 10
509.2578100362959
 20
486.528469062335
 30
0.0
 11
511.2701433177517
 21
485.4094448120786
 31
0.0
  0
LINE
  5
7A2
330
1F
100
AcDbEntity
  8
防火材
  6
Continuous
370
    13
100
AcDbLine
 10
511.3128810528862
 20
481.5909644804869
 30
0.0
 11
509.3057649891258
 21
480.5074726718504
 31
0.0
  0
LINE
  5
7A3
330
1F
100
AcDbEntity
  8
防火材
  6
HIDDEN
 48
5.0
370
    13
100
AcDbLine
 10
473.2270178372886
 20
463.6526697541454
 30
0.0
 11
473.2270178372886
 21
525.6766342419804
 31
0.0
  0
LINE
  5
7A4
330
1F
100
AcDbEntity
  8
防火材
  6
HIDDEN
 48
5.0
370
    13
100
AcDbLine
 10
519.8783211421068
 20
463.6526697541454
 30
0.0
 11
519.8783211421068
 21
525.6766342419804
 31
0.0
  0
LINE
  5
7A5
330
1F
100
AcDbEntity
  8
防火材
  6
HIDDEN
 48
5.0
370
    13
100
AcDbLine
 10
473.2270178372886
 20
525.6766342419804
 30
0.0
 11
519.8783211421068
 21
525.6766342419804
 31
0.0
  0
LINE
  5
7A6
330
1F
100
AcDbEntity
  8
防火材
  6
HIDDEN
 48
5.0
370
    13
100
AcDbLine
 10
473.2270178372886
 20
463.6526697541455
 30
0.0
 11
519.8783211421068
 21
463.6526697541454
 31
0.0
  0
CIRCLE
  5
7A7
330
1F
100
AcDbEntity
  8
防火材
  6
Continuous
370
    13
100
AcDbCircle
 10
471.0547344381299
 20
476.4863774769454
 30
0.0
 40
0.6505532882355283
  0
CIRCLE
  5
7A8
330
1F
100
AcDbEntity
  8
防火材
  6
Continuous
370
    13
100
AcDbCircle
 10
522.0506045412655
 20
476.4863774769454
 30
0.0
 40
0.6505532882355283
  0
CIRCLE
  5
7A9
330
1F
100
AcDbEntity
  8
防火材
  6
Continuous
370
    13
100
AcDbCircle
 10
522.0506045412655
 20
510.8429265191804
 30
0.0
 40
0.6505532882355283
  0
LINE
  5
7AA
330
1F
100
AcDbEntity
  8
防火材
  6
Continuous
370
    13
100
AcDbLine
 10
483.2752949008918
 20
520.6798333652949
 30
0.0
 11
483.2752949008918
 21
530.0212010402979
 31
0.0
  0
CIRCLE
  5
7AB
330
1F
100
AcDbEntity
  8
防火材
  6
Continuous
370
    13
100
AcDbCircle
 10
479.8250596927123
 20
527.6766342419803
 30
0.0
 40
0.6505532882355283
  0
CIRCLE
  5
7AC
330
1F
100
AcDbEntity
  8
防火材
  6
Continuous
370
    13
100
AcDbCircle
 10
486.7255301090713
 20
527.6766342419803
 30
0.0
 40
0.6505532882355283
  0
LINE
  5
7AD
330
1F
100
AcDbEntity
  8
防火材
  6
Continuous
370
    13
100
AcDbLine
 10
508.6749817919103
 20
520.6798333652949
 30
0.0
 11
508.6749817919103
 21
530.0212010402979
 31
0.0
  0
CIRCLE
  5
7AE
330
1F
100
AcDbEntity
  8
防火材
  6
Continuous
370
    13
100
AcDbCircle
 10
505.2247465837308
 20
527.6766342419803
 30
0.0
 40
0.6505532882355283
  0
CIRCLE
  5
7AF
330
1F
100
AcDbEntity
  8
防火材
  6
Continuous
370
    13
100
AcDbCircle
 10
512.1252170000898
 20
527.6766342419803
 30
0.0
 40
0.6505532882355283
  0
CIRCLE
  5
7B0
330
1F
100
AcDbEntity
  8
防火材
  6
Continuous
370
    13
100
AcDbCircle
 10
479.8250596927123
 20
461.6526697541454
 30
0.0
 40
0.6505532882355283
  0
CIRCLE
  5
7B1
330
1F
100
AcDbEntity
  8
防火材
  6
Continuous
370
    13
100
AcDbCircle
 10
486.7255301090713
 20
461.6526697541454
 30
0.0
 40
0.6505532882355283
  0
CIRCLE
  5
7B2
330
1F
100
AcDbEntity
  8
防火材
  6
Continuous
370
    13
100
AcDbCircle
 10
505.2247465837308
 20
461.6526697541454
 30
0.0
 40
0.6505532882355283
  0
CIRCLE
  5
7B3
330
1F
100
AcDbEntity
  8
防火材
  6
Continuous
370
    13
100
AcDbCircle
 10
512.1252170000898
 20
461.6526697541454
 30
0.0
 40
0.6505532882355283
  0
CIRCLE
  5
7B4
330
1F
100
AcDbEntity
  8
防火材
  6
Continuous
370
    13
100
AcDbCircle
 10
471.0547344381299
 20
510.8429265191804
 30
0.0
 40
0.6505532882355283
  0
MTEXT
  5
7B5
330
1F
100
AcDbEntity
  8
文字
  6
Continuous
100
AcDbMText
 10
488.6187481728145
 20
453.9189458089648
 30
0.0
 40
3.0
 41
30.05778784164626
 46
0.0
 71
     1
 72
     5
  1
{\fMS PGothic|b0|i0|c128|p50;平面図}
 73
     1
 44
0.75
101
Embedded Object
 70
     1
 10
1.0
 20
0.0
 30
0.0
 11
488.6187481728145
 21
453.9189458089648
 31
0.0
 40
30.05778784164626
 41
0.0
 42
12.30681818181818
 43
3.664772727272727
 71
     2
 72
     1
 44
30.05778784164626
 45
0.8849620939533352
 73
     0
 74
     0
 46
5.349968647182979
  0
MULTILEADER
  5
7B6
330
1F
100
AcDbEntity
  8
文字
  6
Continuous
160
               916
310
940300001A0000000C00000016000000000000C00C00000033000000000000000C00000013000000993A0000CC0000002600000050AF05FBE8797A40AD64D6F239F37D40000000000000000000000000000000000000000000000000000000000000F03F000000000000F03F00000000000000000000000000000000513044
310
307891AB30EB30B730A630E0307F67000009000000010000000000000000000840000000000000F03F0000000000000000000000000000F03F0000000000000000000000000000000000000000000000000000000001000000320000002DFF33FF200030FFB430B730C330AF30000000000000000000000000C80000002600
310
000022F51C585D697B4021361C0A979B7D40000000000000000000000000000000000000000000000000000000000000F03F000000000000F03F000000000000000000000000000000009A53553012FF15FFE54E0A4E0000000006000000010000000000000000000840000000000000F03F00000000000000000000000000
310
00F03F0000000000000000000000000000000000000000000000000000000001000000320000002DFF33FF200030FFB430B730C330AF300000000000000000000000000C00000033000000000000000C00000010000000040000000C00000016000000000000C00C00000012000000000000000C0000001300000001000000
310
0C0000001400000001000000540000000700000003000000E6F221959E577D405A532428DA1E7E400000000000000000206DD9941C727D40E86114A493317E40000000000000000063F011D21F5F7D40867F64B245177E4000000000000000000C00000014000000010000000C00000013000000891300003C000000060000
310
0002000000A4F199335F5B7D40706944ED0F1B7E400000000000000000CAF995A2EDD07C40889C8270FD917D4000000000000000000C00000013000000122700003C0000000600000002000000CAF995A2EDD07C40889C8270FD917D400000000000000000D4D039132BCB7C40889C8270FD917D4000000000000000000C00
310
000016000000000000C00C00000012000000000000000C00000017000000000000000C000000130000009A3A00003C0000000600000002000000F33A34B5D1817A40889C8270FD917D400000000000000000D3D039132BCB7C40889C8270FD917D4000000000000000000C00000016000000000000C00C0000001200000000
310
0000000C00000017000000FFFFFFFF0C0000003300000000000000
100
AcDbMLeader
270
     2
300
CONTEXT_DATA{
 40
1.0
 10
424.0236982002492
 20
473.124374876214
 30
0.0
 41
3.0
140
2.0
145
0.09
174
     5
175
     5
176
     2
177
     0
290
     1
304
けい酸カルシウム板\P厚さ２５以上
 11
0.0
 21
0.0
 31
1.0
340
11
 12
460.6080163820673
 22
482.7811930580321
 32
0.0
 13
1.0
 23
0.0
 33
0.0
 42
0.0
 43
0.0
 44
0.0
 45
1.0
170
     1
 90
-1073741824
171
     3
172
     5
 91
-1073741824
141
0.0
 92
        0
291
     0
292
     0
173
     0
293
     0
142
0.0
143
0.0
294
     0
295
     0
296
     0
110
414.7197010963714
120
463.7469585104471
130
0.0
111
1.0
121
0.0
131
0.0
112
0.0
122
1.0
132
0.0
297
     0
302
LEADER{
290
     1
291
     1
 10
461.0580163820674
 20
473.124374876214
 30
0.0
 11
-1.0
 21
0.0
 31
0.0
 90
        1
 40
0.36
304
LEADER_LINE{
 10
471.1319778912748
 20
483.0985451503933
 30
0.0
 91
        0
305
}
271
     0
303
}
272
     9
273
     9
301
}
340
12E
 90
 33904128
170
     1
 91
-1056964608
341
14
171
    -2
290
     1
291
     1
 41
0.36
 42
2.0
172
     2
343
11
173
     5
 95
        5
174
     1
175
     0
 92
-1056964608
292
     0
 93
-1056964608
 10
1.0
 20
1.0
 30
1.0
 43
0.0
176
     0
293
     0
294
     0
178
     0
179
     3
 45
1.0
271
     0
272
     9
273
     9
295
     0
  0
MULTILEADER
  5
7B7
330
1F
100
AcDbEntity
  8
文字
  6
Continuous
160
               916
310
940300001A0000000C00000016000000000000C00C00000033000000000000000C00000013000000993A0000D000000026000000A821E7E492757A40F684C37EEB468040000000000000000000000000000000000000000000000000000000000000F03F000000000000F03F00000000000000000000000000000000FA569A
310
5B2875DC30EB30C830FB30CA30C330C830000000000A000000010000000000000000000840000000000000F03F0000000000000000000000000000F03F0000000000000000000000000000000000000000000000000000000001000000320000002DFF33FF200030FFB430B730C330AF30000000000000000000000000C400
310
0000260000007A67FE4107C87B40F684C37EEB1B8040000000000000000000000000000000000000000000000000000000000000F03F000000000000F03F000000000000000000000000000000002DFF16FFE54E0A4E0000000004000000010000000000000000000840000000000000F03F00000000000000000000000000
310
00F03F0000000000000000000000000000000000000000000000000000000001000000320000002DFF33FF200030FFB430B730C330AF300000000000000000000000000C00000033000000000000000C00000010000000040000000C00000016000000000000C00C00000012000000000000000C0000001300000001000000
310
0C0000001400000001000000540000000700000003000000B33F35AD99427D404CF99FCBFBFF7F400000000000000000080CFCB0155E7D4098B5CF98BFEE7F400000000000000000A042B7047F3E7D405760F35823F67F4000000000000000000C00000014000000010000000C00000013000000891300003C000000060000
310
00020000002A41F6588C407D40D2AC49920FFB7F400000000000000000DC541A18C6C57C4029B8F6B11E17804000000000000000000C00000013000000112700003C0000000600000002000000DC541A18C6C57C4029B8F6B11E1780400000000000000000E62BBE8803C07C4029B8F6B11E17804000000000000000000C00
310
000016000000000000C00C00000012000000000000000C00000017000000000000000C000000130000009A3A00003C00000006000000020000000596B82AAA7C7A4029B8F6B11E1780400000000000000000E52BBE8803C07C4029B8F6B11E17804000000000000000000C00000016000000000000C00C0000001200000000
310
0000000C00000017000000FFFFFFFF0C0000003300000000000000
100
AcDbMLeader
270
     2
300
CONTEXT_DATA{
 40
1.0
 10
423.7015446482078
 20
514.8899878764106
 30
0.0
 41
3.0
140
2.0
145
0.09
174
     5
175
     5
176
     2
177
     0
290
     1
304
{\fMS PGothic|b0|i0|c128|p50;固定用ボルト・ナット\PＭ６以上}
 11
0.0
 21
0.0
 31
1.0
340
11
 12
459.910862830026
 22
524.5127151491378
 32
0.0
 13
1.0
 23
0.0
 33
0.0
 42
0.0
 43
0.0
 44
0.0
 45
1.0
170
     1
 90
-1073741824
171
     3
172
     5
 91
-1073741824
141
0.0
 92
        0
291
     0
292
     0
173
     0
293
     0
142
0.0
143
0.0
294
     0
295
     0
296
     0
110
468.6639360495421
120
503.3071087304685
130
0.0
111
1.0
121
0.0
131
0.0
112
0.0
122
1.0
132
0.0
297
     0
302
LEADER{
290
     1
291
     1
 10
460.360862830026
 20
514.8899878764106
 30
0.0
 11
-1.0
 21
0.0
 31
0.0
 90
        0
 40
0.36
304
LEADER_LINE{
 10
469.8802957387528
 20
510.9217765916487
 30
0.0
 91
        0
305
}
271
     0
303
}
272
     9
273
     9
301
}
340
12E
 90
 33904128
170
     1
 91
-1056964608
341
14
171
    -2
290
     1
291
     1
 41
0.36
 42
2.0
172
     2
343
11
173
     5
 95
        5
174
     1
175
     2
 92
-1056964608
292
     0
 93
-1056964608
 10
1.0
 20
1.0
 30
1.0
 43
0.0
176
     0
293
     0
294
     0
178
     0
179
     3
 45
1.0
271
     0
272
     9
273
     9
295
     0
  0
MULTILEADER
  5
7B8
330
1F
100
AcDbEntity
  8
文字
  6
Continuous
160
               704
310
C0020000190000000C00000016000000000000C00C00000033000000000000000C00000013000000993A0000C00000002600000065D12C2C9E80804062DD893487F97D40000000000000000000000000000000000000000000000000000000000000F03F000000000000F03F000000000000000000000000000000001A90DA
310
7D6972000003000000010000000000000000000840000000000000F03F0000000000000000000000000000F03F0000000000000000000000000000000000000000000000000000000001000000320000002DFF33FF200030FFB430B730C330AF300000000000000000000000000C00000033000000000000000C0000001000
310
0000040000000C00000016000000000000C00C00000012000000000000000C00000013000000010000000C00000014000000010000005400000007000000030000002E799A183F0980406427B7E8ABC37E400000000000000000C8BB303EB7FE7F40D080C62F63DD7E400000000000000000C65573D1E10C80401E83ABCC79
310
CB7E4000000000000000000C00000014000000010000000C00000013000000891300003C00000006000000020000007AE70675100B80404155B1DA92C77E400000000000000000E2940764CA7E8040C843F09AEDEF7D4000000000000000000C00000013000000112700003C0000000600000002000000E2940764CA7E8040
310
C843F09AEDEF7D4000000000000000005DA9B5ABAB818040C843F09AEDEF7D4000000000000000000C00000016000000000000C00C00000012000000000000000C00000017000000000000000C000000130000009A3A00003C00000006000000020000005DA9B5ABAB818040C843F09AEDEF7D400000000000000000F0FFE6
310
14C1E68040C843F09AEDEF7D4000000000000000000C00000016000000000000C00C00000012000000000000000C00000017000000FFFFFFFF0C0000003300000000000000
100
AcDbMLeader
270
     2
300
CONTEXT_DATA{
 40
1.0
 10
528.2088236038504
 20
478.9955090890257
 30
0.0
 41
3.0
140
2.0
145
0.09
174
     5
175
     5
176
     0
177
     0
290
     1
304
通線物
 11
0.0
 21
0.0
 31
1.0
340
11
 12
528.2988236038504
 22
483.1580090890257
 32
0.0
 13
1.0
 23
0.0
 33
0.0
 42
0.0
 43
0.0
 44
0.0
 45
1.0
170
     1
 90
-1073741824
171
     1
172
     5
 91
-1073741824
141
0.0
 92
        0
291
     0
292
     0
173
     0
293
     0
142
0.0
143
0.0
294
     0
295
     0
296
     0
110
525.7377810454271
120
469.6180927232588
130
0.0
111
1.0
121
0.0
131
0.0
112
0.0
122
1.0
132
0.0
297
     0
302
LEADER{
290
     1
291
     1
 10
527.8488236038504
 20
478.9955090890257
 30
0.0
 11
1.0
 21
0.0
 31
0.0
 90
        0
 40
0.36
304
LEADER_LINE{
 10
511.9197370437291
 20
493.8367154840498
 30
0.0
 91
        0
305
}
271
     0
303
}
272
     9
273
     9
301
}
340
12E
 90
 33904128
170
     1
 91
-1056964608
341
14
171
    -2
290
     1
291
     1
 41
0.36
 42
2.0
172
     2
343
11
173
     5
 95
        5
174
     1
175
     0
 92
-1056964608
292
     0
 93
-1056964608
 10
1.0
 20
1.0
 30
1.0
 43
0.0
176
     0
293
     0
294
     0
178
     0
179
     1
 45
1.0
271
     0
272
     9
273
     9
295
     0
  0
DIMENSION
  5
7B9
330
1F
100
AcDbEntity
  8
寸法
  6
Continuous
100
AcDbDimension
280
     0
  2
*D1
 10
524.2228879404243
 20
453.6860204772785
 30
0.0
 11
522.6424443061614
 21
451.4023904098391
 31
0.0
 70
   160
  1
２５以上
 71
     5
 42
4.534593431109101
 73
     0
 74
     0
 75
     0
  3
Standard
100
AcDbAlignedDimension
 13
519.6882945093152
 23
457.3262716002829
 33
0.0
 14
524.2228879404243
 24
457.3701236050639
 34
0.0
100
AcDbRotatedDimension
1001
ACAD
1000
DSTYLE
1002
{
1070
    41
1040
2.0
1070
    42
1040
0.0
1070
    77
1070
     1
1070
   140
1040
2.0
1070
   147
1040
1.0
1070
   279
1070
     2
1070
   340
1005
11
1002
}
  0
DIMENSION
  5
7BA
330
1F
100
AcDbEntity
  8
寸法
  6
Continuous
100
AcDbDimension
280
     0
  2
*D2
 10
529.862386470784
 20
463.8426963869373
 30
0.0
 11
532.1460165382196
 21
461.5344181024416
 31
0.0
 70
   160
  1
２５以上
 71
     5
 42
4.534593431109101
 73
     0
 74
     0
 75
     0
 53
90.0
  3
Standard
100
AcDbAlignedDimension
 13
526.2221353477757
 23
459.308102955828
 33
0.0
 14
526.1782833429947
 24
463.842696386937
 34
0.0
 50
90.0
100
AcDbRotatedDimension
1001
ACAD
1000
DSTYLE
1002
{
1070
    41
1040
2.0
1070
    42
1040
0.0
1070
    77
1070
     1
1070
   140
1040
2.0
1070
   147
1040
1.0
1070
   279
1070
     2
1070
   340
1005
11
1002
}
  0
LINE
  5
7BB
330
1F
100
AcDbEntity
  8
防火材
  6
Continuous
370
    13
100
AcDbLine
 10
480.7118707936783
 20
519.8314037761115
 30
0.0
 11
479.4815221748642
 21
519.8314037761115
 31
0.0
  0
LINE
  5
7BC
330
1F
100
AcDbEntity
  8
防火材
  6
Continuous
370
    13
100
AcDbLine
 10
480.7118707936783
 20
520.8314037761115
 30
0.0
 11
479.4815221748642
 21
520.8314037761115
 31
0.0
  0
LINE
  5
7BD
330
1F
100
AcDbEntity
  8
防火材
  6
Continuous
370
    13
100
AcDbLine
 10
480.7118707936783
 20
519.6798333652948
 30
0.0
 11
479.5573073802724
 21
519.6798333652948
 31
0.0
  0
LINE
  5
7BE
330
1F
100
AcDbEntity
  8
防火材
  6
Continuous
370
    13
100
AcDbLine
 10
485.5761913556429
 20
519.6798333652948
 30
0.0
 11
480.9743984461404
 21
519.6798333652948
 31
0.0
  0
LINE
  5
7BF
330
1F
100
AcDbEntity
  8
防火材
  6
Continuous
370
    13
100
AcDbLine
 10
485.1311468129608
 20
520.6798333652947
 30
0.0
 11
481.4194429888227
 21
520.6798333652947
 31
0.0
  0
LINE
  5
7C0
330
1F
100
AcDbEntity
  8
防火材
  6
Continuous
370
    13
100
AcDbLine
 10
485.5761913556429
 20
519.5282629544782
 30
0.0
 11
480.9743984461404
 21
519.5282629544782
 31
0.0
  0
LINE
  5
7C1
330
1F
100
AcDbEntity
  8
防火材
  6
Continuous
370
    13
100
AcDbLine
 10
485.4932824215109
 20
518.5282629544782
 30
0.0
 11
480.9990263263473
 21
518.5282629544782
 31
0.0
  0
ARC
  5
7C2
330
1F
100
AcDbEntity
  8
防火材
  6
Continuous
370
    13
100
AcDbCircle
 10
479.4815221748642
 20
519.7556185707033
 30
0.0
 40
0.0757852054083115
100
AcDbArc
 50
90.0
 51
180.0
  0
ARC
  5
7C3
330
1F
100
AcDbEntity
  8
防火材
  6
Continuous
370
    13
100
AcDbCircle
 10
479.4815221748642
 20
519.7556185707033
 30
0.0
 40
1.075785205408311
100
AcDbArc
 50
90.0
 51
180.0
  0
LINE
  5
7C4
330
1F
100
AcDbEntity
  8
防火材
  6
Continuous
370
    13
100
AcDbLine
 10
479.5573073802724
 20
519.6798333652948
 30
0.0
 11
479.5573073802724
 21
518.8646636480028
 31
0.0
  0
ARC
  5
7C5
330
1F
100
AcDbEntity
  8
防火材
  6
Continuous
370
    13
100
AcDbCircle
 10
480.0573073802724
 20
518.3646636480029
 30
0.0
 40
0.5
100
AcDbArc
 50
270.0
 51
340.342264079814
  0
ARC
  5
7C6
330
1F
100
AcDbEntity
  8
防火材
  6
Continuous
370
    13
100
AcDbCircle
 10
480.9990263263473
 20
518.0282629544782
 30
0.0
 40
0.5
100
AcDbArc
 50
90.0
 51
160.342264079814
  0
LINE
  5
7C7
330
1F
100
AcDbEntity
  8
防火材
  6
Continuous
370
    13
100
AcDbLine
 10
479.405736969456
 20
519.7556185707033
 30
0.0
 11
479.405736969456
 21
518.8646636480028
 31
0.0
  0
LINE
  5
7C8
330
1F
100
AcDbEntity
  8
防火材
  6
Continuous
370
    13
100
AcDbLine
 10
478.405736969456
 20
519.7556185707033
 30
0.0
 11
478.405736969456
 21
518.3646636480029
 31
0.0
  0
LINE
  5
7C9
330
1F
100
AcDbEntity
  8
防火材
  6
Continuous
370
    13
100
AcDbLine
 10
479.5573073802724
 20
518.8646636480028
 30
0.0
 11
479.405736969456
 21
518.8646636480028
 31
0.0
  0
LINE
  5
7CA
330
1F
100
AcDbEntity
  8
防火材
  6
Continuous
370
    13
100
AcDbLine
 10
480.0573073802724
 20
517.8646636480029
 30
0.0
 11
478.9057369694559
 21
517.8646636480029
 31
0.0
  0
ARC
  5
7CB
330
1F
100
AcDbEntity
  8
防火材
  6
Continuous
370
    13
100
AcDbCircle
 10
478.9057369694559
 20
518.3646636480029
 30
0.0
 40
0.5
100
AcDbArc
 50
180.0
 51
270.0
  0
ARC
  5
7CC
330
1F
100
AcDbEntity
  8
防火材
  6
Continuous
370
    13
100
AcDbCircle
 10
480.9743984461404
 20
519.7556185707033
 30
0.0
 40
0.0757852054083115
100
AcDbArc
 50
209.999999999624
 51
270.0
  0
ARC
  5
7CD
330
1F
100
AcDbEntity
  8
防火材
  6
Continuous
370
    13
100
AcDbCircle
 10
480.9743984461404
 20
519.7556185707033
 30
0.0
 40
0.2273556162249346
100
AcDbArc
 50
209.9999999996371
 51
270.0
  0
ARC
  5
7CE
330
1F
100
AcDbEntity
  8
防火材
  6
Continuous
370
    13
100
AcDbCircle
 10
480.7118707936783
 20
519.6040481598865
 30
0.0
 40
0.0757852054083115
100
AcDbArc
 50
29.99999999962405
 51
90.0
  0
ARC
  5
7CF
330
1F
100
AcDbEntity
  8
防火材
  6
Continuous
370
    13
100
AcDbCircle
 10
480.7118707936783
 20
519.6040481598865
 30
0.0
 40
0.2273556162249346
100
AcDbArc
 50
29.99999999962405
 51
90.0
  0
ARC
  5
7D0
330
1F
100
AcDbEntity
  8
防火材
  6
Continuous
370
    13
100
AcDbCircle
 10
480.7118707936783
 20
519.6040481598865
 30
0.0
 40
1.227355616224934
100
AcDbArc
 50
65.81856900830337
 51
90.0
  0
ARC
  5
7D1
330
1F
100
AcDbEntity
  8
防火材
  6
Continuous
370
    13
100
AcDbCircle
 10
481.4194429888227
 20
521.1798333652948
 30
0.0
 40
0.5
100
AcDbArc
 50
245.8185690082967
 51
270.0
  0
ARC
  5
7D2
330
1F
100
AcDbEntity
  8
防火材
  6
Continuous
370
    13
100
AcDbCircle
 10
485.5761913556429
 20
519.7556185707033
 30
0.0
 40
0.0757852054083115
100
AcDbArc
 50
270.0
 51
330.0000000003759
  0
ARC
  5
7D3
330
1F
100
AcDbEntity
  8
防火材
  6
Continuous
370
    13
100
AcDbCircle
 10
485.5761913556429
 20
519.7556185707033
 30
0.0
 40
0.2273556162249346
100
AcDbArc
 50
270.0
 51
330.0000000003628
  0
ARC
  5
7D4
330
1F
100
AcDbEntity
  8
防火材
  6
Continuous
370
    13
100
AcDbCircle
 10
485.8387190081052
 20
519.6040481598865
 30
0.0
 40
0.0757852054083115
100
AcDbArc
 50
90.0
 51
150.0000000003759
  0
ARC
  5
7D5
330
1F
100
AcDbEntity
  8
防火材
  6
Continuous
370
    13
100
AcDbCircle
 10
485.8387190081052
 20
519.6040481598865
 30
0.0
 40
0.2273556162249346
100
AcDbArc
 50
90.0
 51
150.0000000003759
  0
ARC
  5
7D6
330
1F
100
AcDbEntity
  8
防火材
  6
Continuous
370
    13
100
AcDbCircle
 10
485.8387190081052
 20
519.6040481598865
 30
0.0
 40
1.227355616224934
100
AcDbArc
 50
90.0
 51
114.1814309916966
  0
ARC
  5
7D7
330
1F
100
AcDbEntity
  8
防火材
  6
Continuous
370
    13
100
AcDbCircle
 10
485.1311468129608
 20
521.1798333652948
 30
0.0
 40
0.5
100
AcDbArc
 50
270.0
 51
294.1814309917032
  0
LINE
  5
7D8
330
1F
100
AcDbEntity
  8
防火材
  6
Continuous
370
    13
100
AcDbLine
 10
485.8387190081052
 20
519.8314037761115
 30
0.0
 11
487.0690676269191
 21
519.8314037761115
 31
0.0
  0
LINE
  5
7D9
330
1F
100
AcDbEntity
  8
防火材
  6
Continuous
370
    13
100
AcDbLine
 10
485.8387190081052
 20
520.8314037761115
 30
0.0
 11
487.0690676269191
 21
520.8314037761115
 31
0.0
  0
LINE
  5
7DA
330
1F
100
AcDbEntity
  8
防火材
  6
Continuous
370
    13
100
AcDbLine
 10
485.8387190081052
 20
519.6798333652948
 30
0.0
 11
486.9932824215108
 21
519.6798333652948
 31
0.0
  0
ARC
  5
7DB
330
1F
100
AcDbEntity
  8
防火材
  6
Continuous
370
    13
100
AcDbCircle
 10
487.0690676269191
 20
519.7556185707033
 30
0.0
 40
0.0757852054083115
100
AcDbArc
 50
0.0
 51
90.0
  0
ARC
  5
7DC
330
1F
100
AcDbEntity
  8
防火材
  6
Continuous
370
    13
100
AcDbCircle
 10
487.0690676269191
 20
519.7556185707033
 30
0.0
 40
1.075785205408311
100
AcDbArc
 50
0.0
 51
90.0
  0
LINE
  5
7DD
330
1F
100
AcDbEntity
  8
防火材
  6
Continuous
370
    13
100
AcDbLine
 10
486.9932824215108
 20
519.6798333652948
 30
0.0
 11
486.9932824215108
 21
518.8646636480028
 31
0.0
  0
ARC
  5
7DE
330
1F
100
AcDbEntity
  8
防火材
  6
Continuous
370
    13
100
AcDbCircle
 10
485.4932824215109
 20
518.0282629544782
 30
0.0
 40
0.5
100
AcDbArc
 50
19.65773592018597
 51
90.0
  0
ARC
  5
7DF
330
1F
100
AcDbEntity
  8
防火材
  6
Continuous
370
    13
100
AcDbCircle
 10
486.4350013675855
 20
518.3646636480029
 30
0.0
 40
0.5
100
AcDbArc
 50
199.6577359201859
 51
270.0
  0
LINE
  5
7E0
330
1F
100
AcDbEntity
  8
防火材
  6
Continuous
370
    13
100
AcDbLine
 10
487.1448528323274
 20
519.7556185707033
 30
0.0
 11
487.1448528323274
 21
518.8646636480028
 31
0.0
  0
LINE
  5
7E1
330
1F
100
AcDbEntity
  8
防火材
  6
Continuous
370
    13
100
AcDbLine
 10
488.1448528323274
 20
519.7556185707033
 30
0.0
 11
488.1448528323274
 21
518.3646636480029
 31
0.0
  0
LINE
  5
7E2
330
1F
100
AcDbEntity
  8
防火材
  6
Continuous
370
    13
100
AcDbLine
 10
486.9932824215108
 20
518.8646636480028
 30
0.0
 11
487.1448528323274
 21
518.8646636480028
 31
0.0
  0
LINE
  5
7E3
330
1F
100
AcDbEntity
  8
防火材
  6
Continuous
370
    13
100
AcDbLine
 10
486.4350013675855
 20
517.8646636480029
 30
0.0
 11
487.6448528323274
 21
517.8646636480029
 31
0.0
  0
ARC
  5
7E4
330
1F
100
AcDbEntity
  8
防火材
  6
Continuous
370
    13
100
AcDbCircle
 10
487.6448528323274
 20
518.3646636480029
 30
0.0
 40
0.5
100
AcDbArc
 50
270.0
 51
0.0
  0
LINE
  5
7E5
330
1F
100
AcDbEntity
  8
防火材
  6
Continuous
 48
0.1
370
    13
100
AcDbLine
 10
481.6570093916846
 20
518.5282629544782
 30
0.0
 11
481.6570093916846
 21
519.5282629544782
 31
0.0
  0
LINE
  5
7E6
330
1F
100
AcDbEntity
  8
防火材
  6
Continuous
 48
0.1
370
    13
100
AcDbLine
 10
483.2752949008918
 20
520.6798333652949
 30
0.0
 11
483.2752949008918
 21
519.6798333652948
 31
0.0
  0
LINE
  5
7E7
330
1F
100
AcDbEntity
  8
防火材
  6
Continuous
370
    13
100
AcDbLine
 10
507.056696282703
 20
515.8182645250725
 30
0.0
 11
507.056696282703
 21
518.5282629544782
 31
0.0
  0
LINE
  5
7E8
330
1F
100
AcDbEntity
  8
防火材
  6
Continuous
370
    13
100
AcDbLine
 10
506.1115576846969
 20
519.8314037761115
 30
0.0
 11
504.8812090658827
 21
519.8314037761115
 31
0.0
  0
LINE
  5
7E9
330
1F
100
AcDbEntity
  8
防火材
  6
Continuous
370
    13
100
AcDbLine
 10
506.1115576846969
 20
520.8314037761115
 30
0.0
 11
504.8812090658827
 21
520.8314037761115
 31
0.0
  0
LINE
  5
7EA
330
1F
100
AcDbEntity
  8
防火材
  6
Continuous
370
    13
100
AcDbLine
 10
506.1115576846969
 20
519.6798333652948
 30
0.0
 11
504.956994271291
 21
519.6798333652948
 31
0.0
  0
LINE
  5
7EB
330
1F
100
AcDbEntity
  8
防火材
  6
Continuous
370
    13
100
AcDbLine
 10
510.9758782466615
 20
519.6798333652948
 30
0.0
 11
506.3740853371589
 21
519.6798333652948
 31
0.0
  0
LINE
  5
7EC
330
1F
100
AcDbEntity
  8
防火材
  6
Continuous
370
    13
100
AcDbLine
 10
510.5308337039794
 20
520.6798333652947
 30
0.0
 11
506.8191298798413
 21
520.6798333652947
 31
0.0
  0
LINE
  5
7ED
330
1F
100
AcDbEntity
  8
防火材
  6
Continuous
370
    13
100
AcDbLine
 10
510.9758782466615
 20
519.5282629544782
 30
0.0
 11
506.3740853371589
 21
519.5282629544782
 31
0.0
  0
LINE
  5
7EE
330
1F
100
AcDbEntity
  8
防火材
  6
Continuous
370
    13
100
AcDbLine
 10
510.8929693125294
 20
518.5282629544782
 30
0.0
 11
506.3987132173658
 21
518.5282629544782
 31
0.0
  0
ARC
  5
7EF
330
1F
100
AcDbEntity
  8
防火材
  6
Continuous
370
    13
100
AcDbCircle
 10
504.8812090658827
 20
519.7556185707033
 30
0.0
 40
0.0757852054083115
100
AcDbArc
 50
90.0
 51
180.0
  0
ARC
  5
7F0
330
1F
100
AcDbEntity
  8
防火材
  6
Continuous
370
    13
100
AcDbCircle
 10
504.8812090658827
 20
519.7556185707033
 30
0.0
 40
1.075785205408311
100
AcDbArc
 50
90.0
 51
180.0
  0
LINE
  5
7F1
330
1F
100
AcDbEntity
  8
防火材
  6
Continuous
370
    13
100
AcDbLine
 10
504.956994271291
 20
519.6798333652948
 30
0.0
 11
504.956994271291
 21
518.8646636480028
 31
0.0
  0
ARC
  5
7F2
330
1F
100
AcDbEntity
  8
防火材
  6
Continuous
370
    13
100
AcDbCircle
 10
505.456994271291
 20
518.3646636480029
 30
0.0
 40
0.5
100
AcDbArc
 50
270.0
 51
340.342264079814
  0
ARC
  5
7F3
330
1F
100
AcDbEntity
  8
防火材
  6
Continuous
370
    13
100
AcDbCircle
 10
506.3987132173658
 20
518.0282629544782
 30
0.0
 40
0.5
100
AcDbArc
 50
90.0
 51
160.342264079814
  0
LINE
  5
7F4
330
1F
100
AcDbEntity
  8
防火材
  6
Continuous
370
    13
100
AcDbLine
 10
504.8054238604745
 20
519.7556185707033
 30
0.0
 11
504.8054238604745
 21
518.8646636480028
 31
0.0
  0
LINE
  5
7F5
330
1F
100
AcDbEntity
  8
防火材
  6
Continuous
370
    13
100
AcDbLine
 10
503.8054238604745
 20
519.7556185707033
 30
0.0
 11
503.8054238604745
 21
518.3646636480029
 31
0.0
  0
LINE
  5
7F6
330
1F
100
AcDbEntity
  8
防火材
  6
Continuous
370
    13
100
AcDbLine
 10
504.956994271291
 20
518.8646636480028
 30
0.0
 11
504.8054238604745
 21
518.8646636480028
 31
0.0
  0
LINE
  5
7F7
330
1F
100
AcDbEntity
  8
防火材
  6
Continuous
370
    13
100
AcDbLine
 10
505.456994271291
 20
517.8646636480029
 30
0.0
 11
504.3054238604745
 21
517.8646636480029
 31
0.0
  0
ARC
  5
7F8
330
1F
100
AcDbEntity
  8
防火材
  6
Continuous
370
    13
100
AcDbCircle
 10
504.3054238604745
 20
518.3646636480029
 30
0.0
 40
0.5
100
AcDbArc
 50
180.0
 51
270.0
  0
ARC
  5
7F9
330
1F
100
AcDbEntity
  8
防火材
  6
Continuous
370
    13
100
AcDbCircle
 10
506.3740853371589
 20
519.7556185707033
 30
0.0
 40
0.0757852054083115
100
AcDbArc
 50
209.999999999624
 51
270.0
  0
ARC
  5
7FA
330
1F
100
AcDbEntity
  8
防火材
  6
Continuous
370
    13
100
AcDbCircle
 10
506.3740853371589
 20
519.7556185707033
 30
0.0
 40
0.2273556162249346
100
AcDbArc
 50
209.9999999996371
 51
270.0
  0
ARC
  5
7FB
330
1F
100
AcDbEntity
  8
防火材
  6
Continuous
370
    13
100
AcDbCircle
 10
506.1115576846969
 20
519.6040481598865
 30
0.0
 40
0.0757852054083115
100
AcDbArc
 50
29.99999999962405
 51
90.0
  0
ARC
  5
7FC
330
1F
100
AcDbEntity
  8
防火材
  6
Continuous
370
    13
100
AcDbCircle
 10
506.1115576846969
 20
519.6040481598865
 30
0.0
 40
0.2273556162249346
100
AcDbArc
 50
29.99999999962405
 51
90.0
  0
ARC
  5
7FD
330
1F
100
AcDbEntity
  8
防火材
  6
Continuous
370
    13
100
AcDbCircle
 10
506.1115576846969
 20
519.6040481598865
 30
0.0
 40
1.227355616224934
100
AcDbArc
 50
65.81856900830337
 51
90.0
  0
ARC
  5
7FE
330
1F
100
AcDbEntity
  8
防火材
  6
Continuous
370
    13
100
AcDbCircle
 10
506.8191298798413
 20
521.1798333652948
 30
0.0
 40
0.5
100
AcDbArc
 50
245.8185690082967
 51
270.0
  0
ARC
  5
7FF
330
1F
100
AcDbEntity
  8
防火材
  6
Continuous
370
    13
100
AcDbCircle
 10
510.9758782466615
 20
519.7556185707033
 30
0.0
 40
0.0757852054083115
100
AcDbArc
 50
270.0
 51
330.0000000003759
  0
ARC
  5
800
330
1F
100
AcDbEntity
  8
防火材
  6
Continuous
370
    13
100
AcDbCircle
 10
510.9758782466615
 20
519.7556185707033
 30
0.0
 40
0.2273556162249346
100
AcDbArc
 50
270.0
 51
330.0000000003628
  0
ARC
  5
801
330
1F
100
AcDbEntity
  8
防火材
  6
Continuous
370
    13
100
AcDbCircle
 10
511.2384058991238
 20
519.6040481598865
 30
0.0
 40
0.0757852054083115
100
AcDbArc
 50
90.0
 51
150.0000000003759
  0
ARC
  5
802
330
1F
100
AcDbEntity
  8
防火材
  6
Continuous
370
    13
100
AcDbCircle
 10
511.2384058991238
 20
519.6040481598865
 30
0.0
 40
0.2273556162249346
100
AcDbArc
 50
90.0
 51
150.0000000003759
  0
ARC
  5
803
330
1F
100
AcDbEntity
  8
防火材
  6
Continuous
370
    13
100
AcDbCircle
 10
511.2384058991238
 20
519.6040481598865
 30
0.0
 40
1.227355616224934
100
AcDbArc
 50
90.0
 51
114.1814309916966
  0
ARC
  5
804
330
1F
100
AcDbEntity
  8
防火材
  6
Continuous
370
    13
100
AcDbCircle
 10
510.5308337039794
 20
521.1798333652948
 30
0.0
 40
0.5
100
AcDbArc
 50
270.0
 51
294.1814309917032
  0
LINE
  5
805
330
1F
100
AcDbEntity
  8
防火材
  6
Continuous
370
    13
100
AcDbLine
 10
511.2384058991238
 20
519.8314037761115
 30
0.0
 11
512.4687545179376
 21
519.8314037761115
 31
0.0
  0
LINE
  5
806
330
1F
100
AcDbEntity
  8
防火材
  6
Continuous
370
    13
100
AcDbLine
 10
511.2384058991238
 20
520.8314037761115
 30
0.0
 11
512.4687545179376
 21
520.8314037761115
 31
0.0
  0
LINE
  5
807
330
1F
100
AcDbEntity
  8
防火材
  6
Continuous
370
    13
100
AcDbLine
 10
511.2384058991238
 20
519.6798333652948
 30
0.0
 11
512.3929693125293
 21
519.6798333652948
 31
0.0
  0
ARC
  5
808
330
1F
100
AcDbEntity
  8
防火材
  6
Continuous
370
    13
100
AcDbCircle
 10
512.4687545179376
 20
519.7556185707033
 30
0.0
 40
0.0757852054083115
100
AcDbArc
 50
0.0
 51
90.0
  0
ARC
  5
809
330
1F
100
AcDbEntity
  8
防火材
  6
Continuous
370
    13
100
AcDbCircle
 10
512.4687545179376
 20
519.7556185707033
 30
0.0
 40
1.075785205408311
100
AcDbArc
 50
0.0
 51
90.0
  0
LINE
  5
80A
330
1F
100
AcDbEntity
  8
防火材
  6
Continuous
370
    13
100
AcDbLine
 10
512.3929693125293
 20
519.6798333652948
 30
0.0
 11
512.3929693125293
 21
518.8646636480028
 31
0.0
  0
ARC
  5
80B
330
1F
100
AcDbEntity
  8
防火材
  6
Continuous
370
    13
100
AcDbCircle
 10
510.8929693125294
 20
518.0282629544782
 30
0.0
 40
0.5
100
AcDbArc
 50
19.65773592018597
 51
90.0
  0
ARC
  5
80C
330
1F
100
AcDbEntity
  8
防火材
  6
Continuous
370
    13
100
AcDbCircle
 10
511.834688258604
 20
518.3646636480029
 30
0.0
 40
0.5
100
AcDbArc
 50
199.6577359201859
 51
270.0
  0
LINE
  5
80D
330
1F
100
AcDbEntity
  8
防火材
  6
Continuous
370
    13
100
AcDbLine
 10
512.544539723346
 20
519.7556185707033
 30
0.0
 11
512.544539723346
 21
518.8646636480028
 31
0.0
  0
LINE
  5
80E
330
1F
100
AcDbEntity
  8
防火材
  6
Continuous
370
    13
100
AcDbLine
 10
513.544539723346
 20
519.7556185707033
 30
0.0
 11
513.544539723346
 21
518.3646636480029
 31
0.0
  0
LINE
  5
80F
330
1F
100
AcDbEntity
  8
防火材
  6
Continuous
370
    13
100
AcDbLine
 10
512.3929693125293
 20
518.8646636480028
 30
0.0
 11
512.544539723346
 21
518.8646636480028
 31
0.0
  0
LINE
  5
810
330
1F
100
AcDbEntity
  8
防火材
  6
Continuous
370
    13
100
AcDbLine
 10
511.834688258604
 20
517.8646636480029
 30
0.0
 11
513.044539723346
 21
517.8646636480029
 31
0.0
  0
ARC
  5
811
330
1F
100
AcDbEntity
  8
防火材
  6
Continuous
370
    13
100
AcDbCircle
 10
513.044539723346
 20
518.3646636480029
 30
0.0
 40
0.5
100
AcDbArc
 50
270.0
 51
0.0
  0
LINE
  5
812
330
1F
100
AcDbEntity
  8
防火材
  6
Continuous
 48
0.1
370
    13
100
AcDbLine
 10
507.056696282703
 20
518.5282629544782
 30
0.0
 11
507.056696282703
 21
519.5282629544782
 31
0.0
  0
LINE
  5
813
330
1F
100
AcDbEntity
  8
防火材
  6
Continuous
 48
0.1
370
    13
100
AcDbLine
 10
508.6749817919103
 20
520.6798333652949
 30
0.0
 11
508.6749817919103
 21
519.6798333652948
 31
0.0
  0
LINE
  5
814
330
1F
100
AcDbEntity
  8
防火材
  6
Continuous
370
    13
100
AcDbLine
 10
481.6570093916847
 20
472.4456853513679
 30
0.0
 11
481.6570093916846
 21
470.8010410416476
 31
0.0
  0
LINE
  5
815
330
1F
100
AcDbEntity
  8
防火材
  6
Continuous
370
    13
100
AcDbLine
 10
483.2752949008918
 20
468.6494706308309
 30
0.0
 11
483.2752949008918
 21
459.308102955828
 31
0.0
  0
LINE
  5
816
330
1F
100
AcDbEntity
  8
防火材
  6
Continuous
370
    13
100
AcDbLine
 10
508.6749817919103
 20
468.6494706308309
 30
0.0
 11
508.6749817919103
 21
459.308102955828
 31
0.0
  0
LINE
  5
817
330
1F
100
AcDbEntity
  8
防火材
  6
Continuous
370
    13
100
AcDbLine
 10
480.7118707936783
 20
469.4979002200143
 30
0.0
 11
479.4815221748642
 21
469.4979002200143
 31
0.0
  0
LINE
  5
818
330
1F
100
AcDbEntity
  8
防火材
  6
Continuous
370
    13
100
AcDbLine
 10
480.7118707936783
 20
468.4979002200143
 30
0.0
 11
479.4815221748642
 21
468.4979002200143
 31
0.0
  0
LINE
  5
819
330
1F
100
AcDbEntity
  8
防火材
  6
Continuous
370
    13
100
AcDbLine
 10
480.7118707936783
 20
469.649470630831
 30
0.0
 11
479.5573073802724
 21
469.649470630831
 31
0.0
  0
LINE
  5
81A
330
1F
100
AcDbEntity
  8
防火材
  6
Continuous
370
    13
100
AcDbLine
 10
485.5761913556429
 20
469.649470630831
 30
0.0
 11
480.9743984461404
 21
469.649470630831
 31
0.0
  0
LINE
  5
81B
330
1F
100
AcDbEntity
  8
防火材
  6
Continuous
370
    13
100
AcDbLine
 10
485.1311468129608
 20
468.649470630831
 30
0.0
 11
481.4194429888227
 21
468.649470630831
 31
0.0
  0
LINE
  5
81C
330
1F
100
AcDbEntity
  8
防火材
  6
Continuous
370
    13
100
AcDbLine
 10
485.5761913556429
 20
469.8010410416476
 30
0.0
 11
480.9743984461404
 21
469.8010410416476
 31
0.0
  0
LINE
  5
81D
330
1F
100
AcDbEntity
  8
防火材
  6
Continuous
370
    13
100
AcDbLine
 10
485.4932824215109
 20
470.8010410416476
 30
0.0
 11
480.9990263263473
 21
470.8010410416476
 31
0.0
  0
ARC
  5
81E
330
1F
100
AcDbEntity
  8
防火材
  6
Continuous
370
    13
100
AcDbCircle
 10
479.4815221748642
 20
469.5736854254225
 30
0.0
 40
0.0757852054083115
100
AcDbArc
 50
180.0
 51
270.0
  0
ARC
  5
81F
330
1F
100
AcDbEntity
  8
防火材
  6
Continuous
370
    13
100
AcDbCircle
 10
479.4815221748642
 20
469.5736854254225
 30
0.0
 40
1.075785205408311
100
AcDbArc
 50
180.0
 51
270.0
  0
LINE
  5
820
330
1F
100
AcDbEntity
  8
防火材
  6
Continuous
370
    13
100
AcDbLine
 10
479.5573073802724
 20
469.649470630831
 30
0.0
 11
479.5573073802724
 21
470.464640348123
 31
0.0
  0
ARC
  5
821
330
1F
100
AcDbEntity
  8
防火材
  6
Continuous
370
    13
100
AcDbCircle
 10
480.0573073802724
 20
470.9646403481229
 30
0.0
 40
0.5
100
AcDbArc
 50
19.65773592018597
 51
90.0
  0
ARC
  5
822
330
1F
100
AcDbEntity
  8
防火材
  6
Continuous
370
    13
100
AcDbCircle
 10
480.9990263263473
 20
471.3010410416476
 30
0.0
 40
0.5
100
AcDbArc
 50
199.6577359201859
 51
270.0
  0
LINE
  5
823
330
1F
100
AcDbEntity
  8
防火材
  6
Continuous
370
    13
100
AcDbLine
 10
479.405736969456
 20
469.5736854254225
 30
0.0
 11
479.405736969456
 21
470.464640348123
 31
0.0
  0
LINE
  5
824
330
1F
100
AcDbEntity
  8
防火材
  6
Continuous
370
    13
100
AcDbLine
 10
478.405736969456
 20
469.5736854254225
 30
0.0
 11
478.405736969456
 21
470.9646403481229
 31
0.0
  0
LINE
  5
825
330
1F
100
AcDbEntity
  8
防火材
  6
Continuous
370
    13
100
AcDbLine
 10
479.5573073802724
 20
470.464640348123
 30
0.0
 11
479.405736969456
 21
470.464640348123
 31
0.0
  0
LINE
  5
826
330
1F
100
AcDbEntity
  8
防火材
  6
Continuous
370
    13
100
AcDbLine
 10
480.0573073802724
 20
471.4646403481229
 30
0.0
 11
478.9057369694559
 21
471.4646403481229
 31
0.0
  0
ARC
  5
827
330
1F
100
AcDbEntity
  8
防火材
  6
Continuous
370
    13
100
AcDbCircle
 10
478.9057369694559
 20
470.9646403481229
 30
0.0
 40
0.5
100
AcDbArc
 50
90.0
 51
180.0
  0
ARC
  5
828
330
1F
100
AcDbEntity
  8
防火材
  6
Continuous
370
    13
100
AcDbCircle
 10
480.9743984461404
 20
469.5736854254225
 30
0.0
 40
0.0757852054083115
100
AcDbArc
 50
90.0
 51
150.0000000003759
  0
ARC
  5
829
330
1F
100
AcDbEntity
  8
防火材
  6
Continuous
370
    13
100
AcDbCircle
 10
480.9743984461404
 20
469.5736854254225
 30
0.0
 40
0.2273556162249346
100
AcDbArc
 50
90.0
 51
150.0000000003628
  0
ARC
  5
82A
330
1F
100
AcDbEntity
  8
防火材
  6
Continuous
370
    13
100
AcDbCircle
 10
480.7118707936783
 20
469.7252558362392
 30
0.0
 40
0.0757852054083115
100
AcDbArc
 50
270.0
 51
330.0000000003759
  0
ARC
  5
82B
330
1F
100
AcDbEntity
  8
防火材
  6
Continuous
370
    13
100
AcDbCircle
 10
480.7118707936783
 20
469.7252558362392
 30
0.0
 40
0.2273556162249346
100
AcDbArc
 50
270.0
 51
330.0000000003759
  0
ARC
  5
82C
330
1F
100
AcDbEntity
  8
防火材
  6
Continuous
370
    13
100
AcDbCircle
 10
480.7118707936783
 20
469.7252558362392
 30
0.0
 40
1.227355616224934
100
AcDbArc
 50
270.0
 51
294.1814309916967
  0
ARC
  5
82D
330
1F
100
AcDbEntity
  8
防火材
  6
Continuous
370
    13
100
AcDbCircle
 10
481.4194429888227
 20
468.149470630831
 30
0.0
 40
0.5
100
AcDbArc
 50
90.0
 51
114.1814309917032
  0
ARC
  5
82E
330
1F
100
AcDbEntity
  8
防火材
  6
Continuous
370
    13
100
AcDbCircle
 10
485.5761913556429
 20
469.5736854254225
 30
0.0
 40
0.0757852054083115
100
AcDbArc
 50
29.99999999962405
 51
90.0
  0
ARC
  5
82F
330
1F
100
AcDbEntity
  8
防火材
  6
Continuous
370
    13
100
AcDbCircle
 10
485.5761913556429
 20
469.5736854254225
 30
0.0
 40
0.2273556162249346
100
AcDbArc
 50
29.99999999963721
 51
90.0
  0
ARC
  5
830
330
1F
100
AcDbEntity
  8
防火材
  6
Continuous
370
    13
100
AcDbCircle
 10
485.8387190081052
 20
469.7252558362392
 30
0.0
 40
0.0757852054083115
100
AcDbArc
 50
209.999999999624
 51
270.0
  0
ARC
  5
831
330
1F
100
AcDbEntity
  8
防火材
  6
Continuous
370
    13
100
AcDbCircle
 10
485.8387190081052
 20
469.7252558362392
 30
0.0
 40
0.2273556162249346
100
AcDbArc
 50
209.999999999624
 51
270.0
  0
ARC
  5
832
330
1F
100
AcDbEntity
  8
防火材
  6
Continuous
370
    13
100
AcDbCircle
 10
485.8387190081052
 20
469.7252558362392
 30
0.0
 40
1.227355616224934
100
AcDbArc
 50
245.8185690083033
 51
270.0
  0
ARC
  5
833
330
1F
100
AcDbEntity
  8
防火材
  6
Continuous
370
    13
100
AcDbCircle
 10
485.1311468129608
 20
468.149470630831
 30
0.0
 40
0.5
100
AcDbArc
 50
65.81856900829675
 51
90.0
  0
LINE
  5
834
330
1F
100
AcDbEntity
  8
防火材
  6
Continuous
370
    13
100
AcDbLine
 10
485.8387190081052
 20
469.4979002200143
 30
0.0
 11
487.0690676269191
 21
469.4979002200143
 31
0.0
  0
LINE
  5
835
330
1F
100
AcDbEntity
  8
防火材
  6
Continuous
370
    13
100
AcDbLine
 10
485.8387190081052
 20
468.4979002200143
 30
0.0
 11
487.0690676269191
 21
468.4979002200143
 31
0.0
  0
LINE
  5
836
330
1F
100
AcDbEntity
  8
防火材
  6
Continuous
370
    13
100
AcDbLine
 10
485.8387190081052
 20
469.649470630831
 30
0.0
 11
486.9932824215108
 21
469.649470630831
 31
0.0
  0
ARC
  5
837
330
1F
100
AcDbEntity
  8
防火材
  6
Continuous
370
    13
100
AcDbCircle
 10
487.0690676269191
 20
469.5736854254225
 30
0.0
 40
0.0757852054083115
100
AcDbArc
 50
270.0
 51
0.0
  0
ARC
  5
838
330
1F
100
AcDbEntity
  8
防火材
  6
Continuous
370
    13
100
AcDbCircle
 10
487.0690676269191
 20
469.5736854254225
 30
0.0
 40
1.075785205408311
100
AcDbArc
 50
270.0
 51
0.0
  0
LINE
  5
839
330
1F
100
AcDbEntity
  8
防火材
  6
Continuous
370
    13
100
AcDbLine
 10
486.9932824215108
 20
469.649470630831
 30
0.0
 11
486.9932824215108
 21
470.464640348123
 31
0.0
  0
ARC
  5
83A
330
1F
100
AcDbEntity
  8
防火材
  6
Continuous
370
    13
100
AcDbCircle
 10
485.4932824215109
 20
471.3010410416476
 30
0.0
 40
0.5
100
AcDbArc
 50
270.0
 51
340.342264079814
  0
ARC
  5
83B
330
1F
100
AcDbEntity
  8
防火材
  6
Continuous
370
    13
100
AcDbCircle
 10
486.4350013675855
 20
470.9646403481229
 30
0.0
 40
0.5
100
AcDbArc
 50
90.0
 51
160.342264079814
  0
LINE
  5
83C
330
1F
100
AcDbEntity
  8
防火材
  6
Continuous
370
    13
100
AcDbLine
 10
487.1448528323274
 20
469.5736854254225
 30
0.0
 11
487.1448528323274
 21
470.464640348123
 31
0.0
  0
LINE
  5
83D
330
1F
100
AcDbEntity
  8
防火材
  6
Continuous
370
    13
100
AcDbLine
 10
488.1448528323274
 20
469.5736854254225
 30
0.0
 11
488.1448528323274
 21
470.9646403481229
 31
0.0
  0
LINE
  5
83E
330
1F
100
AcDbEntity
  8
防火材
  6
Continuous
370
    13
100
AcDbLine
 10
486.9932824215108
 20
470.464640348123
 30
0.0
 11
487.1448528323274
 21
470.464640348123
 31
0.0
  0
LINE
  5
83F
330
1F
100
AcDbEntity
  8
防火材
  6
Continuous
370
    13
100
AcDbLine
 10
486.4350013675855
 20
471.4646403481229
 30
0.0
 11
487.6448528323274
 21
471.4646403481229
 31
0.0
  0
ARC
  5
840
330
1F
100
AcDbEntity
  8
防火材
  6
Continuous
370
    13
100
AcDbCircle
 10
487.6448528323274
 20
470.9646403481229
 30
0.0
 40
0.5
100
AcDbArc
 50
0.0
 51
90.0
  0
LINE
  5
841
330
1F
100
AcDbEntity
  8
防火材
  6
Continuous
 48
0.1
370
    13
100
AcDbLine
 10
481.6570093916846
 20
470.8010410416476
 30
0.0
 11
481.6570093916846
 21
469.8010410416476
 31
0.0
  0
LINE
  5
842
330
1F
100
AcDbEntity
  8
防火材
  6
Continuous
 48
0.1
370
    13
100
AcDbLine
 10
483.2752949008918
 20
468.6494706308309
 30
0.0
 11
483.2752949008918
 21
469.649470630831
 31
0.0
  0
LINE
  5
843
330
1F
100
AcDbEntity
  8
防火材
  6
Continuous
370
    13
100
AcDbLine
 10
507.056696282703
 20
472.4456853513679
 30
0.0
 11
507.056696282703
 21
470.8010410416476
 31
0.0
  0
LINE
  5
844
330
1F
100
AcDbEntity
  8
防火材
  6
Continuous
370
    13
100
AcDbLine
 10
506.1115576846969
 20
469.4979002200143
 30
0.0
 11
504.8812090658827
 21
469.4979002200143
 31
0.0
  0
LINE
  5
845
330
1F
100
AcDbEntity
  8
防火材
  6
Continuous
370
    13
100
AcDbLine
 10
506.1115576846969
 20
468.4979002200143
 30
0.0
 11
504.8812090658827
 21
468.4979002200143
 31
0.0
  0
LINE
  5
846
330
1F
100
AcDbEntity
  8
防火材
  6
Continuous
370
    13
100
AcDbLine
 10
506.1115576846969
 20
469.649470630831
 30
0.0
 11
504.956994271291
 21
469.649470630831
 31
0.0
  0
LINE
  5
847
330
1F
100
AcDbEntity
  8
防火材
  6
Continuous
370
    13
100
AcDbLine
 10
510.9758782466615
 20
469.649470630831
 30
0.0
 11
506.3740853371589
 21
469.649470630831
 31
0.0
  0
LINE
  5
848
330
1F
100
AcDbEntity
  8
防火材
  6
Continuous
370
    13
100
AcDbLine
 10
510.5308337039794
 20
468.649470630831
 30
0.0
 11
506.8191298798413
 21
468.649470630831
 31
0.0
  0
LINE
  5
849
330
1F
100
AcDbEntity
  8
防火材
  6
Continuous
370
    13
100
AcDbLine
 10
510.9758782466615
 20
469.8010410416476
 30
0.0
 11
506.3740853371589
 21
469.8010410416476
 31
0.0
  0
LINE
  5
84A
330
1F
100
AcDbEntity
  8
防火材
  6
Continuous
370
    13
100
AcDbLine
 10
510.8929693125294
 20
470.8010410416476
 30
0.0
 11
506.3987132173658
 21
470.8010410416476
 31
0.0
  0
ARC
  5
84B
330
1F
100
AcDbEntity
  8
防火材
  6
Continuous
370
    13
100
AcDbCircle
 10
504.8812090658827
 20
469.5736854254225
 30
0.0
 40
0.0757852054083115
100
AcDbArc
 50
180.0
 51
270.0
  0
ARC
  5
84C
330
1F
100
AcDbEntity
  8
防火材
  6
Continuous
370
    13
100
AcDbCircle
 10
504.8812090658827
 20
469.5736854254225
 30
0.0
 40
1.075785205408311
100
AcDbArc
 50
180.0
 51
270.0
  0
LINE
  5
84D
330
1F
100
AcDbEntity
  8
防火材
  6
Continuous
370
    13
100
AcDbLine
 10
504.956994271291
 20
469.649470630831
 30
0.0
 11
504.956994271291
 21
470.464640348123
 31
0.0
  0
ARC
  5
84E
330
1F
100
AcDbEntity
  8
防火材
  6
Continuous
370
    13
100
AcDbCircle
 10
505.456994271291
 20
470.9646403481229
 30
0.0
 40
0.5
100
AcDbArc
 50
19.65773592018597
 51
90.0
  0
ARC
  5
84F
330
1F
100
AcDbEntity
  8
防火材
  6
Continuous
370
    13
100
AcDbCircle
 10
506.3987132173658
 20
471.3010410416476
 30
0.0
 40
0.5
100
AcDbArc
 50
199.6577359201859
 51
270.0
  0
LINE
  5
850
330
1F
100
AcDbEntity
  8
防火材
  6
Continuous
370
    13
100
AcDbLine
 10
504.8054238604745
 20
469.5736854254225
 30
0.0
 11
504.8054238604745
 21
470.464640348123
 31
0.0
  0
LINE
  5
851
330
1F
100
AcDbEntity
  8
防火材
  6
Continuous
370
    13
100
AcDbLine
 10
503.8054238604745
 20
469.5736854254225
 30
0.0
 11
503.8054238604745
 21
470.9646403481229
 31
0.0
  0
LINE
  5
852
330
1F
100
AcDbEntity
  8
防火材
  6
Continuous
370
    13
100
AcDbLine
 10
504.956994271291
 20
470.464640348123
 30
0.0
 11
504.8054238604745
 21
470.464640348123
 31
0.0
  0
LINE
  5
853
330
1F
100
AcDbEntity
  8
防火材
  6
Continuous
370
    13
100
AcDbLine
 10
505.456994271291
 20
471.4646403481229
 30
0.0
 11
504.3054238604745
 21
471.4646403481229
 31
0.0
  0
ARC
  5
854
330
1F
100
AcDbEntity
  8
防火材
  6
Continuous
370
    13
100
AcDbCircle
 10
504.3054238604745
 20
470.9646403481229
 30
0.0
 40
0.5
100
AcDbArc
 50
90.0
 51
180.0
  0
ARC
  5
855
330
1F
100
AcDbEntity
  8
防火材
  6
Continuous
370
    13
100
AcDbCircle
 10
506.3740853371589
 20
469.5736854254225
 30
0.0
 40
0.0757852054083115
100
AcDbArc
 50
90.0
 51
150.0000000003759
  0
ARC
  5
856
330
1F
100
AcDbEntity
  8
防火材
  6
Continuous
370
    13
100
AcDbCircle
 10
506.3740853371589
 20
469.5736854254225
 30
0.0
 40
0.2273556162249346
100
AcDbArc
 50
90.0
 51
150.0000000003628
  0
ARC
  5
857
330
1F
100
AcDbEntity
  8
防火材
  6
Continuous
370
    13
100
AcDbCircle
 10
506.1115576846969
 20
469.7252558362392
 30
0.0
 40
0.0757852054083115
100
AcDbArc
 50
270.0
 51
330.0000000003759
  0
ARC
  5
858
330
1F
100
AcDbEntity
  8
防火材
  6
Continuous
370
    13
100
AcDbCircle
 10
506.1115576846969
 20
469.7252558362392
 30
0.0
 40
0.2273556162249346
100
AcDbArc
 50
270.0
 51
330.0000000003759
  0
ARC
  5
859
330
1F
100
AcDbEntity
  8
防火材
  6
Continuous
370
    13
100
AcDbCircle
 10
506.1115576846969
 20
469.7252558362392
 30
0.0
 40
1.227355616224934
100
AcDbArc
 50
270.0
 51
294.1814309916967
  0
ARC
  5
85A
330
1F
100
AcDbEntity
  8
防火材
  6
Continuous
370
    13
100
AcDbCircle
 10
506.8191298798413
 20
468.149470630831
 30
0.0
 40
0.5
100
AcDbArc
 50
90.0
 51
114.1814309917032
  0
ARC
  5
85B
330
1F
100
AcDbEntity
  8
防火材
  6
Continuous
370
    13
100
AcDbCircle
 10
510.9758782466615
 20
469.5736854254225
 30
0.0
 40
0.0757852054083115
100
AcDbArc
 50
29.99999999962405
 51
90.0
  0
ARC
  5
85C
330
1F
100
AcDbEntity
  8
防火材
  6
Continuous
370
    13
100
AcDbCircle
 10
510.9758782466615
 20
469.5736854254225
 30
0.0
 40
0.2273556162249346
100
AcDbArc
 50
29.99999999963721
 51
90.0
  0
ARC
  5
85D
330
1F
100
AcDbEntity
  8
防火材
  6
Continuous
370
    13
100
AcDbCircle
 10
511.2384058991238
 20
469.7252558362392
 30
0.0
 40
0.0757852054083115
100
AcDbArc
 50
209.999999999624
 51
270.0
  0
ARC
  5
85E
330
1F
100
AcDbEntity
  8
防火材
  6
Continuous
370
    13
100
AcDbCircle
 10
511.2384058991238
 20
469.7252558362392
 30
0.0
 40
0.2273556162249346
100
AcDbArc
 50
209.999999999624
 51
270.0
  0
ARC
  5
85F
330
1F
100
AcDbEntity
  8
防火材
  6
Continuous
370
    13
100
AcDbCircle
 10
511.2384058991238
 20
469.7252558362392
 30
0.0
 40
1.227355616224934
100
AcDbArc
 50
245.8185690083033
 51
270.0
  0
ARC
  5
860
330
1F
100
AcDbEntity
  8
防火材
  6
Continuous
370
    13
100
AcDbCircle
 10
510.5308337039794
 20
468.149470630831
 30
0.0
 40
0.5
100
AcDbArc
 50
65.81856900829675
 51
90.0
  0
LINE
  5
861
330
1F
100
AcDbEntity
  8
防火材
  6
Continuous
370
    13
100
AcDbLine
 10
511.2384058991238
 20
469.4979002200143
 30
0.0
 11
512.4687545179376
 21
469.4979002200143
 31
0.0
  0
LINE
  5
862
330
1F
100
AcDbEntity
  8
防火材
  6
Continuous
370
    13
100
AcDbLine
 10
511.2384058991238
 20
468.4979002200143
 30
0.0
 11
512.4687545179376
 21
468.4979002200143
 31
0.0
  0
LINE
  5
863
330
1F
100
AcDbEntity
  8
防火材
  6
Continuous
370
    13
100
AcDbLine
 10
511.2384058991238
 20
469.649470630831
 30
0.0
 11
512.3929693125293
 21
469.649470630831
 31
0.0
  0
ARC
  5
864
330
1F
100
AcDbEntity
  8
防火材
  6
Continuous
370
    13
100
AcDbCircle
 10
512.4687545179376
 20
469.5736854254225
 30
0.0
 40
0.0757852054083115
100
AcDbArc
 50
270.0
 51
0.0
  0
ARC
  5
865
330
1F
100
AcDbEntity
  8
防火材
  6
Continuous
370
    13
100
AcDbCircle
 10
512.4687545179376
 20
469.5736854254225
 30
0.0
 40
1.075785205408311
100
AcDbArc
 50
270.0
 51
0.0
  0
LINE
  5
866
330
1F
100
AcDbEntity
  8
防火材
  6
Continuous
370
    13
100
AcDbLine
 10
512.3929693125293
 20
469.649470630831
 30
0.0
 11
512.3929693125293
 21
470.464640348123
 31
0.0
  0
ARC
  5
867
330
1F
100
AcDbEntity
  8
防火材
  6
Continuous
370
    13
100
AcDbCircle
 10
510.8929693125294
 20
471.3010410416476
 30
0.0
 40
0.5
100
AcDbArc
 50
270.0
 51
340.342264079814
  0
ARC
  5
868
330
1F
100
AcDbEntity
  8
防火材
  6
Continuous
370
    13
100
AcDbCircle
 10
511.834688258604
 20
470.9646403481229
 30
0.0
 40
0.5
100
AcDbArc
 50
90.0
 51
160.342264079814
  0
LINE
  5
869
330
1F
100
AcDbEntity
  8
防火材
  6
Continuous
370
    13
100
AcDbLine
 10
512.544539723346
 20
469.5736854254225
 30
0.0
 11
512.544539723346
 21
470.464640348123
 31
0.0
  0
LINE
  5
86A
330
1F
100
AcDbEntity
  8
防火材
  6
Continuous
370
    13
100
AcDbLine
 10
513.544539723346
 20
469.5736854254225
 30
0.0
 11
513.544539723346
 21
470.9646403481229
 31
0.0
  0
LINE
  5
86B
330
1F
100
AcDbEntity
  8
防火材
  6
Continuous
370
    13
100
AcDbLine
 10
512.3929693125293
 20
470.464640348123
 30
0.0
 11
512.544539723346
 21
470.464640348123
 31
0.0
  0
LINE
  5
86C
330
1F
100
AcDbEntity
  8
防火材
  6
Continuous
370
    13
100
AcDbLine
 10
511.834688258604
 20
471.4646403481229
 30
0.0
 11
513.044539723346
 21
471.4646403481229
 31
0.0
  0
ARC
  5
86D
330
1F
100
AcDbEntity
  8
防火材
  6
Continuous
370
    13
100
AcDbCircle
 10
513.044539723346
 20
470.9646403481229
 30
0.0
 40
0.5
100
AcDbArc
 50
0.0
 51
90.0
  0
LINE
  5
86E
330
1F
100
AcDbEntity
  8
防火材
  6
Continuous
 48
0.1
370
    13
100
AcDbLine
 10
507.056696282703
 20
470.8010410416476
 30
0.0
 11
507.056696282703
 21
469.8010410416476
 31
0.0
  0
LINE
  5
86F
330
1F
100
AcDbEntity
  8
防火材
  6
Continuous
 48
0.1
370
    13
100
AcDbLine
 10
508.6749817919103
 20
468.6494706308309
 30
0.0
 11
508.6749817919103
 21
469.649470630831
 31
0.0
  0
LINE
  5
870
330
1F
100
AcDbEntity
  8
図面枠
  6
Continuous
100
AcDbLine
 10
612.4970079684617
 20
330.4513546193401
 30
0.0
 11
421.2281220951236
 21
330.4513546193401
 31
0.0
  0
MTEXT
  5
871
330
1F
100
AcDbEntity
  8
文字
  6
Continuous
100
AcDbMText
 10
426.3940099111245
 20
328.8552628967703
 30
0.0
 40
2.0
 41
30.73155332927162
 46
0.0
 71
     1
 72
     5
  1
耐火パテ
 73
     1
 44
0.75
101
Embedded Object
 70
     1
 10
1.0
 20
0.0
 30
0.0
 11
426.3940099111245
 21
328.8552628967703
 31
0.0
 40
30.73155332927162
 41
0.0
 42
10.94318181818182
 43
2.545454545454545
 71
     2
 72
     1
 44
30.73155332927162
 45
0.8849620939533352
 73
     0
 74
     0
 46
2.580461047574065
  0
MTEXT
  5
872
330
1F
100
AcDbEntity
  8
文字
  6
Continuous
100
AcDbMText
 10
516.2189988161972
 20
328.8552628967703
 30
0.0
 40
2.0
 41
30.73155332927162
 46
0.0
 71
     1
 72
     5
  1
{\fMS PGothic|b0|i0|c128|p50;ダンシール-Ｐ}
 73
     1
 44
0.75
101
Embedded Object
 70
     1
 10
1.0
 20
0.0
 30
0.0
 11
516.2189988161972
 21
328.8552628967703
 31
0.0
 40
30.73155332927162
 41
0.0
 42
16.77272727272727
 43
2.647727272727272
 71
     2
 72
     1
 44
30.73155332927162
 45
0.8849620939533352
 73
     0
 74
     0
 46
2.580461047574065
  0
LINE
  5
928
330
1F
100
AcDbEntity
  8
図面枠
  6
Continuous
100
AcDbLine
 10
612.4970079684617
 20
325.14158205562
 30
0.0
 11
421.2281220951236
 21
325.14158205562
 31
0.0
  0
DIMENSION
  5
A40
330
1F
100
AcDbEntity
  8
寸法
  6
Continuous
100
AcDbDimension
280
     0
  2
*D9
 10
608.7817633649905
 20
452.7258112212066
 30
0.0
 11
611.1139415274656
 21
446.7725703967612
 31
0.0
 70
   160
  1
５０以上
 71
     5
 42
9.045941419504401
 73
     0
 74
     0
 75
     0
 53
90.0
  3
Standard
100
AcDbAlignedDimension
 13
605.6796027854809
 23
443.6798698017019
 33
0.0
 14
594.6221347657874
 24
452.7258112212063
 34
0.0
 50
90.0
100
AcDbRotatedDimension
1001
ACAD
1000
DSTYLE
1002
{
1070
    41
1040
2.0
1070
    42
1040
0.0
1070
    77
1070
     1
1070
   140
1040
2.0
1070
   147
1040
1.0
1070
   279
1070
     2
1070
   340
1005
11
1002
}
  0
DIMENSION
  5
BBB
330
1F
100
AcDbEntity
  8
寸法
  6
Continuous
100
AcDbDimension
280
     0
  2
*D10
 10
592.7449821231387
 20
472.500205450663
 30
0.0
 11
592.9799285000503
 21
474.8362058001323
 31
0.0
 70
   160
  1
{\fMS PGothic|b0|i0|c128|p50;１０以上}
 71
     5
 42
2.170122954663497
 73
     0
 74
     0
 75
     0
  3
Standard
100
AcDbAlignedDimension
 13
590.5748591684753
 23
465.061267799782
 33
0.0
 14
592.7449821231387
 24
465.0831938021725
 34
0.0
100
AcDbRotatedDimension
1001
ACAD
1000
DSTYLE
1002
{
1070
    41
1040
2.0
1070
    42
1040
0.0
1070
    77
1070
     1
1070
   140
1040
2.0
1070
   147
1040
1.0
1070
   279
1070
     2
1002
}
  0
ENDSEC
  0
SECTION
  2
OBJECTS
  0
DICTIONARY
  5
C
330
0
100
AcDbDictionary
281
     1
  3
ACAD_CIP_PREVIOUS_PRODUCT_INFO
350
216
  3
ACAD_COLOR
350
6B
  3
ACAD_DETAILVIEWSTYLE
350
21B
  3
ACAD_GROUP
350
D
  3
ACAD_LAYOUT
350
1A
  3
ACAD_MATERIAL
350
6A
  3
ACAD_MLEADERSTYLE
350
12D
  3
ACAD_MLINESTYLE
350
17
  3
ACAD_PLOTSETTINGS
350
19
  3
ACAD_PLOTSTYLENAME
350
E
  3
ACAD_SCALELIST
350
10C
  3
ACAD_SECTIONVIEWSTYLE
350
219
  3
ACAD_TABLESTYLE
350
7E
  3
ACAD_VISUALSTYLE
350
EF
  3
ACDB_RECOMPOSE_DATA
350
CD4
  3
AcDbVariableDictionary
350
5E
  0
DICTIONARY
  5
1FF
330
2
100
AcDbDictionary
280
     1
281
     1
  3
ACAD_LAYERSTATES
360
200
  0
DICTIONARY
  5
13C
330
10
100
AcDbDictionary
280
     1
281
     1
  0
DICTIONARY
  5
2F4
330
2F3
100
AcDbDictionary
280
     1
281
     1
  0
DICTIONARY
  5
1CE
330
1F
100
AcDbDictionary
280
     1
281
     1
  0
XRECORD
  5
216
102
{ACAD_REACTORS
330
C
102
}
330
C
100
AcDbXrecord
280
     1
300
ACD
300
2023
300

  0
DICTIONARY
  5
6B
102
{ACAD_REACTORS
330
C
102
}
330
C
100
AcDbDictionary
281
     1
  0
DICTIONARY
  5
21B
102
{ACAD_REACTORS
330
C
102
}
330
C
100
AcDbDictionary
281
     1
  3
Imperial24
350
300
  3
Metric50
350
21C
  0
DICTIONARY
  5
D
102
{ACAD_REACTORS
330
C
102
}
330
C
100
AcDbDictionary
281
     1
  0
DICTIONARY
  5
1A
102
{ACAD_REACTORS
330
C
102
}
330
C
100
AcDbDictionary
281
     1
  3
Model
350
22
  3
レイアウト1
350
D3
  3
レイアウト2
350
D7
  0
DICTIONARY
  5
6A
102
{ACAD_REACTORS
330
C
102
}
330
C
100
AcDbDictionary
281
     1
  3
ByBlock
350
ED
  3
ByLayer
350
EC
  3
Global
350
EE
  0
DICTIONARY
  5
12D
102
{ACAD_REACTORS
330
C
102
}
330
C
100
AcDbDictionary
281
     1
  3
Annotative
350
13B
  3
Standard
350
12E
  0
DICTIONARY
  5
17
102
{ACAD_REACTORS
330
C
102
}
330
C
100
AcDbDictionary
281
     1
  3
Standard
350
18
  0
DICTIONARY
  5
19
102
{ACAD_REACTORS
330
C
102
}
330
C
100
AcDbDictionary
281
     1
  3
セットアップ1
350
994
  0
ACDBDICTIONARYWDFLT
  5
E
102
{ACAD_REACTORS
330
C
102
}
330
C
100
AcDbDictionary
281
     1
  3
Normal
350
F
100
AcDbDictionaryWithDefault
340
F
  0
DICTIONARY
  5
10C
102
{ACAD_REACTORS
330
C
102
}
330
C
100
AcDbDictionary
281
     1
  3
A0
350
10D
  3
A1
350
1BE
  3
A2
350
1BF
  3
A3
350
1C0
  3
A4
350
1C1
  3
A5
350
1C2
  3
A6
350
1C3
  3
A7
350
1C4
  3
A8
350
1C5
  3
A9
350
1C6
  3
B0
350
1C7
  3
B1
350
1C8
  3
B2
350
1C9
  3
B3
350
1CA
  3
B4
350
1CB
  3
B5
350
1CC
  3
B6
350
1CD
  0
DICTIONARY
  5
219
102
{ACAD_REACTORS
330
C
102
}
330
C
100
AcDbDictionary
281
     1
  3
Imperial24
350
2FF
  3
Metric50
350
21A
  0
DICTIONARY
  5
7E
102
{ACAD_REACTORS
330
C
102
}
330
C
100
AcDbDictionary
281
     1
  3
Standard
350
7F
  0
DICTIONARY
  5
EF
102
{ACAD_REACTORS
330
C
102
}
330
C
100
AcDbDictionary
281
     1
  3
2dWireframe
350
F5
  3
Basic
350
F4
  3
Brighten
350
FB
  3
ColorChange
350
FF
  3
Conceptual
350
F8
  3
Dim
350
FA
  3
EdgeColorOff
350
1E6
  3
Facepattern
350
FE
  3
Flat
350
F0
  3
FlatWithEdges
350
F1
  3
Gouraud
350
F2
  3
GouraudWithEdges
350
F3
  3
Hidden
350
F7
  3
JitterOff
350
1E4
  3
Linepattern
350
FD
  3
OverhangOff
350
1E5
  3
Realistic
350
F9
  3
Shaded
350
1F3
  3
Shaded with edges
350
1F2
  3
Shades of Gray
350
1EF
  3
Sketchy
350
1F0
  3
Thicken
350
FC
  3
Wireframe
350
F6
  3
X-Ray
350
1F1
  0
XRECORD
  5
CD4
102
{ACAD_REACTORS
330
C
102
}
330
C
100
AcDbXrecord
280
     1
 90
        1
330
7F
330
608
330
685
330
686
330
6CE
330
6F5
330
70D
330
7B9
330
7BA
330
A40
330
BBB
  0
DICTIONARY
  5
5E
102
{ACAD_REACTORS
330
C
102
}
330
C
100
AcDbDictionary
281
     1
  3
CANNOSCALE
350
146
  3
CENTEREXE
350
259
  3
CENTERLTYPEFILE
350
25A
  3
CMLEADERSTYLE
350
145
  3
CTABLESTYLE
350
84
  3
CVIEWDETAILSTYLE
350
227
  3
CVIEWSECTIONSTYLE
350
228
  3
DIMASSOC
350
5F
  3
HIDETEXT
350
63
  3
LAYEREVAL
350
1AE
  3
LAYERNOTIFY
350
1AF
  0
DICTIONARY
  5
200
102
{ACAD_REACTORS
330
1FF
102
}
330
1FF
100
AcDbDictionary
281
     1
  0
ACDBDETAILVIEWSTYLE
  5
300
102
{ACAD_REACTORS
330
21B
102
}
330
21B
100
AcDbModelDocViewStyle
 70
     0
  3
Imperial24
290
     0
300
Imperial24
 90
        0
100
AcDbDetailViewStyle
 70
     0
 71
     0
 90
        3
 71
     1
340
11
 62
   256
 40
0.24
340
0
 62
   256
 40
0.24
300

 40
0.36
280
     3
 71
     2
340
16
 90
       25
 62
   256
 71
     3
340
11
 62
   256
 40
0.24
 90
        1
 40
0.75
 90
        1
300
%<\AcVar ViewType \f "%tc1">% %<\AcVar ViewDetailId>%\PSCALE %<\AcVar ViewScale \f "%sn">%
 71
     4
340
16
 90
       25
 62
   256
340
16
 90
       25
 62
   256
280
     0
  0
ACDBDETAILVIEWSTYLE
  5
21C
102
{ACAD_REACTORS
330
21B
102
}
330
21B
100
AcDbModelDocViewStyle
 70
     0
  3
Metric50
290
     0
300
Metric50
 90
        0
100
AcDbDetailViewStyle
 70
     0
 71
     0
 90
        3
 71
     1
340
11
 62
   256
 40
5.0
340
0
 62
   256
 40
5.0
300

 40
0.0
280
     1
 71
     2
340
16
 90
       25
 62
   256
 71
     3
340
11
 62
   256
 40
5.0
 90
        0
 40
15.0
 90
        1
300
%<\AcVar ViewDetailId>% (%<\AcVar ViewScale \f "%sn">%)
 71
     4
340
16
 90
       25
 62
   256
340
16
 90
       25
 62
   256
280
     0
  0
LAYOUT
  5
22
102
{ACAD_XDICTIONARY
360
205
102
}
102
{ACAD_REACTORS
330
1A
102
}
330
1A
100
AcDbPlotSettings
  1
セットアップ1
  2
Adobe PDF
  4
A4
  6

 40
3.174999952316284
 41
3.174999952316284
 42
3.175003051757812
 43
3.17498779296875
 44
209.9733276367187
 45
297.0318298339844
 46
0.0
 47
1.3501414826938
 48
411.8625650317926
 49
252.1318140159358
140
621.8625650317926
141
549.1318140159357
142
1.0
143
1.031316036013356
 70
 11956
 72
     1
 73
     0
 74
     4
  7

 75
     0
147
0.9696348792030697
 76
     0
 77
     2
 78
   300
148
-411.8625650317926
149
-252.1318140159358
100
AcDbLayout
  1
Model
 70
     1
 71
     0
 10
0.0
 20
0.0
 11
12.0
 21
9.0
 12
0.0
 22
0.0
 32
0.0
 14
0.0
 24
0.0
 34
0.0
 15
0.0
 25
0.0
 35
0.0
146
0.0
 13
0.0
 23
0.0
 33
0.0
 16
1.0
 26
0.0
 36
0.0
 17
0.0
 27
1.0
 37
0.0
 76
     0
330
1F
331
EA
1001
ACAD_PSEXT
1000
Adobe PDF
1000
Adobe PDF Converter
1000
Documents\*.pdf
1000

1070
     0
  0
LAYOUT
  5
D3
102
{ACAD_REACTORS
330
1A
102
}
330
1A
100
AcDbPlotSettings
  1

  2
C:\Documents and Settings\basas\Application Data\Autodesk\AutoCAD 2005\R16.1\enu\plotters\Default Windows System Printer.pc3
  4

  6

 40
0.0
 41
0.0
 42
0.0
 43
0.0
 44
0.0
 45
0.0
 46
0.0
 47
0.0
 48
0.0
 49
0.0
140
0.0
141
0.0
142
1.0
143
1.0
 70
   688
 72
     0
 73
     0
 74
     5
  7

 75
    16
147
1.0
 76
     0
 77
     2
 78
   300
148
0.0
149
0.0
100
AcDbLayout
  1
レイアウト1
 70
     1
 71
     1
 10
0.0
 20
0.0
 11
12.0
 21
9.0
 12
0.0
 22
0.0
 32
0.0
 14
0.0
 24
0.0
 34
0.0
 15
0.0
 25
0.0
 35
0.0
146
0.0
 13
0.0
 23
0.0
 33
0.0
 16
1.0
 26
0.0
 36
0.0
 17
0.0
 27
1.0
 37
0.0
 76
     0
330
D2
  0
LAYOUT
  5
D7
102
{ACAD_REACTORS
330
1A
102
}
330
1A
100
AcDbPlotSettings
  1

  2
C:\Documents and Settings\basas\Application Data\Autodesk\AutoCAD 2005\R16.1\enu\plotters\Default Windows System Printer.pc3
  4

  6

 40
0.0
 41
0.0
 42
0.0
 43
0.0
 44
0.0
 45
0.0
 46
0.0
 47
0.0
 48
0.0
 49
0.0
140
0.0
141
0.0
142
1.0
143
1.0
 70
   688
 72
     0
 73
     0
 74
     5
  7

 75
    16
147
1.0
 76
     0
 77
     2
 78
   300
148
0.0
149
0.0
100
AcDbLayout
  1
レイアウト2
 70
     1
 71
     2
 10
0.0
 20
0.0
 11
12.0
 21
9.0
 12
0.0
 22
0.0
 32
0.0
 14
0.0
 24
0.0
 34
0.0
 15
0.0
 25
0.0
 35
0.0
146
0.0
 13
0.0
 23
0.0
 33
0.0
 16
1.0
 26
0.0
 36
0.0
 17
0.0
 27
1.0
 37
0.0
 76
     0
330
D6
  0
MATERIAL
  5
ED
102
{ACAD_XDICTIONARY
360
1F9
102
}
102
{ACAD_REACTORS
330
6A
102
}
330
6A
100
AcDbMaterial
  1
ByBlock
 94
       63
  0
MATERIAL
  5
EC
102
{ACAD_XDICTIONARY
360
1F7
102
}
102
{ACAD_REACTORS
330
6A
102
}
330
6A
100
AcDbMaterial
  1
ByLayer
 94
       63
  0
MATERIAL
  5
EE
102
{ACAD_XDICTIONARY
360
173
102
}
102
{ACAD_REACTORS
330
6A
102
}
330
6A
100
AcDbMaterial
  1
Global
 43
0.0007999999797903
 43
0.0
 43
0.0
 43
0.0
 43
0.0
 43
0.0007999999797903
 43
0.0
 43
0.0
 43
0.0
 43
0.0
 43
1.0
 43
0.0
 43
0.0
 43
0.0
 43
0.0
 43
1.0
 49
0.0007999999797903
 49
0.0
 49
0.0
 49
0.0
 49
0.0
 49
0.0007999999797903
 49
0.0
 49
0.0
 49
0.0
 49
0.0
 49
1.0
 49
0.0
 49
0.0
 49
0.0
 49
0.0
 49
1.0
142
0.0007999999797903
142
0.0
142
0.0
142
0.0
142
0.0
142
0.0007999999797903
142
0.0
142
0.0
142
0.0
142
0.0
142
1.0
142
0.0
142
0.0
142
0.0
142
0.0
142
1.0
144
0.0007999999797903
144
0.0
144
0.0
144
0.0
144
0.0
144
0.0007999999797903
144
0.0
144
0.0
144
0.0
144
0.0
144
1.0
144
0.0
144
0.0
144
0.0
144
0.0
144
1.0
 94
       63
1001
ACAD
1070
    -1
1070
     3
1070
     0
1000

1071
        0
1070
     0
  0
MLEADERSTYLE
  5
13B
102
{ACAD_REACTORS
330
12D
102
}
330
12D
100
AcDbMLeaderStyle
179
     2
170
     2
171
     1
172
     0
 90
        2
 40
0.0
 41
0.0
173
     1
 91
-1056964608
340
14
 92
       -2
290
     1
 42
2.0
291
     1
 43
8.0
  3
Standard
 44
4.0
300

342
11
174
     1
178
     1
175
     1
176
     0
 93
-1056964608
 45
4.0
292
     0
297
     0
 46
4.0
 94
-1056964608
 47
1.0
 49
1.0
140
1.0
293
     1
141
0.0
294
     1
177
     0
142
1.0
295
     0
296
     1
143
3.75
271
     0
272
     9
273
     9
298
     0
  0
MLEADERSTYLE
  5
12E
102
{ACAD_REACTORS
330
12D
330
7B6
330
7B7
330
7B8
330
687
330
6CC
330
6CD
330
6CF
330
609
330
6F7
330
710
330
718
102
}
330
12D
100
AcDbMLeaderStyle
179
     2
170
     2
171
     1
172
     0
 90
        2
 40
0.0
 41
0.0
173
     1
 91
-1056964608
340
14
 92
       -2
290
     1
 42
2.0
291
     1
 43
8.0
  3
Standard
 44
4.0
300

342
11
174
     1
178
     1
175
     1
176
     0
 93
-1056964608
 45
4.0
292
     0
297
     0
 46
4.0
 94
-1056964608
 47
1.0
 49
1.0
140
1.0
293
     1
141
0.0
294
     1
177
     0
142
1.0
295
     0
296
     0
143
3.75
271
     0
272
     9
273
     9
298
     0
  0
MLINESTYLE
  5
18
102
{ACAD_REACTORS
330
17
102
}
330
17
100
AcDbMlineStyle
  2
STANDARD
 70
     0
  3

 62
   256
 51
90.0
 52
90.0
 71
     2
 49
0.5
 62
   256
  6
BYLAYER
 49
-0.5
 62
   256
  6
BYLAYER
  0
PLOTSETTINGS
  5
994
102
{ACAD_REACTORS
330
19
102
}
330
19
100
AcDbPlotSettings
  1
セットアップ1
  2
Adobe PDF
  4
A4
  6

 40
3.174999952316284
 41
3.174999952316284
 42
3.175003051757812
 43
3.17498779296875
 44
209.9733276367187
 45
297.0318298339844
 46
0.0
 47
1.3501414826938
 48
411.8625650317926
 49
252.1318140159358
140
621.8625650317926
141
549.1318140159357
142
1.0
143
1.031316036013356
 70
 11956
 72
     1
 73
     0
 74
     4
  7

 75
     0
147
0.9696348792030697
 76
     0
 77
     2
 78
   300
148
-411.8625650317926
149
-252.1318140159358
1001
ACAD_PSEXT
1000
Adobe PDF
1000
Adobe PDF Converter
1000
Documents\*.pdf
1000

1070
     0
  0
ACDBPLACEHOLDER
  5
F
102
{ACAD_REACTORS
330
E
102
}
330
E
  0
SCALE
  5
10D
102
{ACAD_REACTORS
330
10C
102
}
330
10C
100
AcDbScale
 70
     0
300
1:1
140
1.0
141
1.0
290
     1
  0
SCALE
  5
1BE
102
{ACAD_REACTORS
330
10C
102
}
330
10C
100
AcDbScale
 70
     0
300
1:2
140
1.0
141
2.0
290
     0
  0
SCALE
  5
1BF
102
{ACAD_REACTORS
330
10C
102
}
330
10C
100
AcDbScale
 70
     0
300
1:4
140
1.0
141
4.0
290
     0
  0
SCALE
  5
1C0
102
{ACAD_REACTORS
330
10C
102
}
330
10C
100
AcDbScale
 70
     0
300
1:5
140
1.0
141
5.0
290
     0
  0
SCALE
  5
1C1
102
{ACAD_REACTORS
330
10C
102
}
330
10C
100
AcDbScale
 70
     0
300
1:8
140
1.0
141
8.0
290
     0
  0
SCALE
  5
1C2
102
{ACAD_REACTORS
330
10C
102
}
330
10C
100
AcDbScale
 70
     0
300
1:10
140
1.0
141
10.0
290
     0
  0
SCALE
  5
1C3
102
{ACAD_REACTORS
330
10C
102
}
330
10C
100
AcDbScale
 70
     0
300
1:16
140
1.0
141
16.0
290
     0
  0
SCALE
  5
1C4
102
{ACAD_REACTORS
330
10C
102
}
330
10C
100
AcDbScale
 70
     0
300
1:20
140
1.0
141
20.0
290
     0
  0
SCALE
  5
1C5
102
{ACAD_REACTORS
330
10C
102
}
330
10C
100
AcDbScale
 70
     0
300
1:30
140
1.0
141
30.0
290
     0
  0
SCALE
  5
1C6
102
{ACAD_REACTORS
330
10C
102
}
330
10C
100
AcDbScale
 70
     0
300
1:40
140
1.0
141
40.0
290
     0
  0
SCALE
  5
1C7
102
{ACAD_REACTORS
330
10C
102
}
330
10C
100
AcDbScale
 70
     0
300
1:50
140
1.0
141
50.0
290
     0
  0
SCALE
  5
1C8
102
{ACAD_REACTORS
330
10C
102
}
330
10C
100
AcDbScale
 70
     0
300
1:100
140
1.0
141
100.0
290
     0
  0
SCALE
  5
1C9
102
{ACAD_REACTORS
330
10C
102
}
330
10C
100
AcDbScale
 70
     0
300
2:1
140
2.0
141
1.0
290
     0
  0
SCALE
  5
1CA
102
{ACAD_REACTORS
330
10C
102
}
330
10C
100
AcDbScale
 70
     0
300
4:1
140
4.0
141
1.0
290
     0
  0
SCALE
  5
1CB
102
{ACAD_REACTORS
330
10C
102
}
330
10C
100
AcDbScale
 70
     0
300
8:1
140
8.0
141
1.0
290
     0
  0
SCALE
  5
1CC
102
{ACAD_REACTORS
330
10C
102
}
330
10C
100
AcDbScale
 70
     0
300
10:1
140
10.0
141
1.0
290
     0
  0
SCALE
  5
1CD
102
{ACAD_REACTORS
330
10C
102
}
330
10C
100
AcDbScale
 70
     0
300
100:1
140
100.0
141
1.0
290
     0
  0
ACDBSECTIONVIEWSTYLE
  5
2FF
102
{ACAD_REACTORS
330
219
102
}
330
219
100
AcDbModelDocViewStyle
 70
     0
  3
Imperial24
290
     0
300
Imperial24
 90
        0
100
AcDbSectionViewStyle
 70
     0
 71
     0
 90
       78
 71
     1
340
11
 62
   256
 40
0.24
340
0
340
0
 62
   256
 40
0.24
300
I, O, Q, S, X, Z
 40
0.48
 90
        3
 40
0.18
 90
        1
 71
     2
340
16
 90
       25
 62
   256
340
16
 90
       50
 62
   256
 40
0.24
 40
0.0
 40
0.24
 71
     3
340
11
 62
   256
 40
0.24
 90
        1
 40
0.75
 90
        1
300
%<\AcVar ViewType \f "%tc1">% %<\AcVar ViewSectionStartId>%-%<\AcVar ViewSectionEndId>%\PSCALE %<\AcVar ViewScale \f "%sn">%
 71
     4
 62
   256
 62
   257
300
ANSI31
 40
1.0
 90
        0
290
     0
290
     0
 90
        6
 40
0.0
 40
1.570796326794896
 40
0.2617993877991494
 40
1.308996938995747
 40
-0.2617993877991494
 40
1.832595714594046
  0
ACDBSECTIONVIEWSTYLE
  5
21A
102
{ACAD_REACTORS
330
219
102
}
330
219
100
AcDbModelDocViewStyle
 70
     0
  3
Metric50
290
     0
300
Metric50
 90
        0
100
AcDbSectionViewStyle
 70
     0
 71
     0
 90
      102
 71
     1
340
11
 62
   256
 40
5.0
340
0
340
0
 62
   256
 40
5.0
300
I, O, Q, S, X, Z
 40
10.0
 90
        0
 40
2.5
 90
        0
 71
     2
340
16
 90
       25
 62
   256
340
16
 90
       50
 62
   256
 40
5.0
 40
2.5
 40
5.0
 71
     3
340
11
 62
   256
 40
5.0
 90
        0
 40
15.0
 90
        1
300
%<\AcVar ViewSectionStartId>%-%<\AcVar ViewSectionEndId>% (%<\AcVar ViewScale \f "%sn">%)
 71
     4
 62
   256
 62
   257
300
ANSI31
 40
1.0
 90
        0
290
     0
290
     0
 90
        6
 40
0.0
 40
1.570796326794896
 40
0.2617993877991494
 40
1.308996938995747
 40
-0.2617993877991494
 40
1.832595714594046
  0
TABLESTYLE
  5
7F
102
{ACAD_XDICTIONARY
360
162
102
}
102
{ACAD_REACTORS
330
7E
102
}
330
7E
100
AcDbTableStyle
280
     0
  3
Standard
 70
     0
 71
     0
 40
1.5
 41
1.5
280
     0
281
     0
  7
Standard
140
4.5
170
     2
 62
     0
 63
     7
283
     0
 90
      512
 91
        0
  1

274
    -2
284
     1
 64
     0
275
    -2
285
     1
 65
     0
276
    -2
286
     1
 66
     0
277
    -2
287
     1
 67
     0
278
    -2
288
     1
 68
     0
279
    -2
289
     1
 69
     0
  7
Standard
140
6.0
170
     5
 62
     0
 63
     7
283
     0
 90
      512
 91
        0
  1

274
    -2
284
     1
 64
     0
275
    -2
285
     1
 65
     0
276
    -2
286
     1
 66
     0
277
    -2
287
     1
 67
     0
278
    -2
288
     1
 68
     0
279
    -2
289
     1
 69
     0
  7
Standard
140
4.5
170
     5
 62
     0
 63
     7
283
     0
 90
      512
 91
        0
  1

274
    -2
284
     1
 64
     0
275
    -2
285
     1
 65
     0
276
    -2
286
     1
 66
     0
277
    -2
287
     1
 67
     0
278
    -2
288
     1
 68
     0
279
    -2
289
     1
 69
     0
  0
VISUALSTYLE
  5
F5
102
{ACAD_REACTORS
330
EF
102
}
330
EF
100
AcDbVisualStyle
  2
2dWireframe
 70
     4
177
     3
291
     0
 70
    58
 90
        0
176
     1
 90
        2
176
     1
 90
        1
176
     1
 90
        0
176
     1
 40
0.6
176
     1
 40
30.0
176
     1
 62
     7
420
 16777215
176
     1
 90
        1
176
     1
 90
        4
176
     1
 62
     7
176
     1
 62
   257
176
     1
 90
        1
176
     1
 90
        1
176
     1
 40
1.0
176
     1
 90
        0
176
     1
 62
   257
176
     1
 40
1.0
176
     1
 90
        1
176
     1
 90
        6
176
     1
 90
        2
176
     1
 62
     7
176
     1
 90
        5
176
     1
 90
        0
176
     1
 90
        0
176
     1
290
     0
176
     1
 90
        1
176
     1
 40
0.0
176
     1
 90
        0
176
     1
290
     1
176
     1
290
     1
176
     1
290
     0
176
     1
290
     0
176
     1
290
     0
176
     1
290
     0
176
     1
290
     0
176
     1
290
     0
176
     1
290
     0
176
     1
 90
       50
176
     1
 40
0.0
176
     1
 40
1.0
176
     1
 90
        0
176
     1
 62
    18
420
        0
176
     1
 90
       50
176
     1
 90
        3
176
     1
 62
     5
420
      255
176
     1
290
     0
176
     1
 90
       50
176
     1
 90
       50
176
     1
 90
       50
176
     1
290
     0
176
     1
 90
       50
176
     1
 62
   256
176
     0
 40
1.0
176
     0
 90
        2
176
     1
  1
strokes_ogs.tif
176
     1
290
     0
176
     1
 40
1.0
176
     1
 40
1.0
176
     1
  0
VISUALSTYLE
  5
F4
102
{ACAD_REACTORS
330
EF
102
}
330
EF
100
AcDbVisualStyle
  2
Basic
 70
     7
177
     3
291
     1
 70
    58
 90
        1
176
     1
 90
        0
176
     1
 90
        1
176
     1
 90
        0
176
     1
 40
0.6
176
     1
 40
30.0
176
     1
 62
     7
420
 16777215
176
     1
 90
        0
176
     1
 90
        4
176
     1
 62
     7
176
     1
 62
   257
176
     1
 90
        1
176
     1
 90
        1
176
     1
 40
1.0
176
     1
 90
        8
176
     1
 62
     7
176
     1
 40
1.0
176
     1
 90
        1
176
     1
 90
        6
176
     1
 90
        2
176
     1
 62
     7
176
     1
 90
        5
176
     1
 90
        0
176
     1
 90
        0
176
     1
290
     0
176
     1
 90
        1
176
     1
 40
0.0
176
     1
 90
        0
176
     1
290
     0
176
     1
290
     1
176
     1
290
     1
176
     1
290
     0
176
     1
290
     0
176
     1
290
     0
176
     1
290
     0
176
     1
290
     0
176
     1
290
     0
176
     1
 90
       50
176
     1
 40
0.0
176
     1
 40
1.0
176
     1
 90
        0
176
     1
 62
    18
420
        0
176
     1
 90
       50
176
     1
 90
        3
176
     1
 62
     5
420
      255
176
     1
290
     0
176
     1
 90
       50
176
     1
 90
       50
176
     1
 90
       50
176
     1
290
     0
176
     1
 90
       50
176
     1
 62
   256
176
     0
 40
1.0
176
     0
 90
        2
176
     1
  1
strokes_ogs.tif
176
     1
290
     0
176
     1
 40
1.0
176
     1
 40
1.0
176
     1
  0
VISUALSTYLE
  5
FB
102
{ACAD_REACTORS
330
EF
102
}
330
EF
100
AcDbVisualStyle
  2
Brighten
 70
    12
177
     3
291
     1
 70
    58
 90
        2
176
     1
 90
        2
176
     1
 90
        1
176
     1
 90
        0
176
     1
 40
0.6
176
     1
 40
30.0
176
     1
 62
     7
420
 16777215
176
     1
 90
        1
176
     1
 90
        4
176
     1
 62
     7
176
     1
 62
   257
176
     1
 90
        1
176
     1
 90
        1
176
     1
 40
1.0
176
     1
 90
        8
176
     1
 62
     7
176
     1
 40
1.0
176
     1
 90
        1
176
     1
 90
        6
176
     1
 90
        2
176
     1
 62
     7
176
     1
 90
        5
176
     1
 90
        0
176
     1
 90
        0
176
     1
290
     0
176
     1
 90
        1
176
     1
 40
50.0
176
     1
 90
        0
176
     1
290
     0
176
     1
290
     1
176
     1
290
     1
176
     1
290
     0
176
     1
290
     0
176
     1
290
     0
176
     1
290
     0
176
     1
290
     0
176
     1
290
     0
176
     1
 90
       50
176
     1
 40
0.0
176
     1
 40
1.0
176
     1
 90
        0
176
     1
 62
    18
420
        0
176
     1
 90
       50
176
     1
 90
        3
176
     1
 62
     5
420
      255
176
     1
290
     0
176
     1
 90
       50
176
     1
 90
       50
176
     1
 90
       50
176
     1
290
     0
176
     1
 90
       50
176
     1
 62
   256
176
     0
 40
1.0
176
     0
 90
        2
176
     1
  1
strokes_ogs.tif
176
     1
290
     0
176
     1
 40
1.0
176
     1
 40
1.0
176
     1
  0
VISUALSTYLE
  5
FF
102
{ACAD_REACTORS
330
EF
102
}
330
EF
100
AcDbVisualStyle
  2
ColorChange
 70
    16
177
     3
291
     1
 70
    58
 90
        2
176
     1
 90
        2
176
     1
 90
        3
176
     1
 90
        0
176
     1
 40
0.6
176
     1
 40
30.0
176
     1
 62
     8
420
  8421504
176
     1
 90
        1
176
     1
 90
        4
176
     1
 62
     7
176
     1
 62
   257
176
     1
 90
        1
176
     1
 90
        1
176
     1
 40
1.0
176
     1
 90
        8
176
     1
 62
     8
420
  8421504
176
     1
 40
1.0
176
     1
 90
        1
176
     1
 90
        6
176
     1
 90
        2
176
     1
 62
     7
176
     1
 90
        5
176
     1
 90
        0
176
     1
 90
        0
176
     1
290
     0
176
     1
 90
        1
176
     1
 40
0.0
176
     1
 90
        0
176
     1
290
     0
176
     1
290
     1
176
     1
290
     1
176
     1
290
     0
176
     1
290
     0
176
     1
290
     0
176
     1
290
     0
176
     1
290
     0
176
     1
290
     0
176
     1
 90
       50
176
     1
 40
0.0
176
     1
 40
1.0
176
     1
 90
        0
176
     1
 62
    18
420
        0
176
     1
 90
       50
176
     1
 90
        3
176
     1
 62
     5
420
      255
176
     1
290
     0
176
     1
 90
       50
176
     1
 90
       50
176
     1
 90
       50
176
     1
290
     0
176
     1
 90
       50
176
     1
 62
   256
176
     0
 40
1.0
176
     0
 90
        2
176
     1
  1
strokes_ogs.tif
176
     1
290
     0
176
     1
 40
1.0
176
     1
 40
1.0
176
     1
  0
VISUALSTYLE
  5
F8
102
{ACAD_REACTORS
330
EF
102
}
330
EF
100
AcDbVisualStyle
  2
Conceptual
 70
     9
177
     3
291
     0
 70
    58
 90
        3
176
     1
 90
        2
176
     1
 90
        1
176
     1
 90
        0
176
     1
 40
0.6
176
     1
 40
30.0
176
     1
 62
     7
420
 16777215
176
     1
 90
        2
176
     1
 90
        2
176
     1
 62
     7
176
     1
 62
   257
176
     1
 90
        1
176
     1
 90
        1
176
     1
 40
40.0
176
     1
 90
        8
176
     1
 62
     7
176
     1
 40
1.0
176
     1
 90
        1
176
     1
 90
        6
176
     1
 90
        2
176
     1
 62
     7
176
     1
 90
        3
176
     1
 90
        0
176
     1
 90
        0
176
     1
290
     0
176
     1
 90
        1
176
     1
 40
0.0
176
     1
 90
        0
176
     1
290
     0
176
     1
290
     1
176
     1
290
     1
176
     1
290
     0
176
     1
290
     0
176
     1
290
     0
176
     1
290
     0
176
     1
290
     0
176
     1
290
     0
176
     1
 90
       50
176
     1
 40
0.0
176
     1
 40
1.0
176
     1
 90
        0
176
     1
 62
    18
420
        0
176
     1
 90
       50
176
     1
 90
        3
176
     1
 62
     5
420
      255
176
     1
290
     0
176
     1
 90
       50
176
     1
 90
       50
176
     1
 90
       50
176
     1
290
     0
176
     1
 90
       50
176
     1
 62
   256
176
     0
 40
1.0
176
     0
 90
        2
176
     1
  1
strokes_ogs.tif
176
     1
290
     0
176
     1
 40
1.0
176
     1
 40
1.0
176
     1
  0
VISUALSTYLE
  5
FA
102
{ACAD_REACTORS
330
EF
102
}
330
EF
100
AcDbVisualStyle
  2
Dim
 70
    11
177
     3
291
     1
 70
    58
 90
        2
176
     1
 90
        2
176
     1
 90
        1
176
     1
 90
        0
176
     1
 40
0.6
176
     1
 40
30.0
176
     1
 62
     7
420
 16777215
176
     1
 90
        1
176
     1
 90
        4
176
     1
 62
     7
176
     1
 62
   257
176
     1
 90
        1
176
     1
 90
        1
176
     1
 40
1.0
176
     1
 90
        8
176
     1
 62
     7
176
     1
 40
1.0
176
     1
 90
        1
176
     1
 90
        6
176
     1
 90
        2
176
     1
 62
     7
176
     1
 90
        5
176
     1
 90
        0
176
     1
 90
        0
176
     1
290
     0
176
     1
 90
        1
176
     1
 40
-50.0
176
     1
 90
        0
176
     1
290
     0
176
     1
290
     1
176
     1
290
     1
176
     1
290
     0
176
     1
290
     0
176
     1
290
     0
176
     1
290
     0
176
     1
290
     0
176
     1
290
     0
176
     1
 90
       50
176
     1
 40
0.0
176
     1
 40
1.0
176
     1
 90
        0
176
     1
 62
    18
420
        0
176
     1
 90
       50
176
     1
 90
        3
176
     1
 62
     5
420
      255
176
     1
290
     0
176
     1
 90
       50
176
     1
 90
       50
176
     1
 90
       50
176
     1
290
     0
176
     1
 90
       50
176
     1
 62
   256
176
     0
 40
1.0
176
     0
 90
        2
176
     1
  1
strokes_ogs.tif
176
     1
290
     0
176
     1
 40
1.0
176
     1
 40
1.0
176
     1
  0
VISUALSTYLE
  5
1E6
102
{ACAD_REACTORS
330
EF
102
}
330
EF
100
AcDbVisualStyle
  2
EdgeColorOff
 70
    22
177
     3
291
     1
 70
    58
 90
        2
176
     0
 90
        2
176
     0
 90
        0
176
     0
 90
        0
176
     0
 40
0.6
176
     0
 40
30.0
176
     0
 62
     7
420
 16777215
176
     0
 90
        1
176
     0
 90
        4
176
     0
 62
     7
176
     0
 62
   257
176
     0
 90
        1
176
     0
 90
        1
176
     0
 40
1.0
176
     0
 90
        8
176
     2
 62
     7
176
     0
 40
1.0
176
     0
 90
        1
176
     0
 90
        6
176
     0
 90
        2
176
     0
 62
     7
176
     0
 90
        5
176
     0
 90
        0
176
     0
 90
        0
176
     0
290
     0
176
     0
 90
        1
176
     0
 40
0.0
176
     0
 90
        0
176
     0
290
     0
176
     1
290
     1
176
     1
290
     1
176
     1
290
     0
176
     1
290
     0
176
     1
290
     0
176
     1
290
     0
176
     1
290
     0
176
     1
290
     0
176
     1
 90
       50
176
     1
 40
0.0
176
     1
 40
1.0
176
     1
 90
        0
176
     1
 62
    18
420
        0
176
     1
 90
       50
176
     1
 90
        3
176
     1
 62
     5
420
      255
176
     1
290
     0
176
     1
 90
       50
176
     1
 90
       50
176
     1
 90
       50
176
     1
290
     0
176
     1
 90
       50
176
     1
 62
   256
176
     0
 40
1.0
176
     0
 90
        2
176
     1
  1
strokes_ogs.tif
176
     1
290
     0
176
     1
 40
1.0
176
     1
 40
1.0
176
     1
  0
VISUALSTYLE
  5
FE
102
{ACAD_REACTORS
330
EF
102
}
330
EF
100
AcDbVisualStyle
  2
Facepattern
 70
    15
177
     3
291
     1
 70
    58
 90
        2
176
     1
 90
        2
176
     1
 90
        1
176
     1
 90
        0
176
     1
 40
0.6
176
     1
 40
30.0
176
     1
 62
     7
420
 16777215
176
     1
 90
        1
176
     1
 90
        4
176
     1
 62
     7
176
     1
 62
   257
176
     1
 90
        1
176
     1
 90
        1
176
     1
 40
1.0
176
     1
 90
        8
176
     1
 62
     7
176
     1
 40
1.0
176
     1
 90
        1
176
     1
 90
        6
176
     1
 90
        2
176
     1
 62
     7
176
     1
 90
        5
176
     1
 90
        0
176
     1
 90
        0
176
     1
290
     0
176
     1
 90
        1
176
     1
 40
0.0
176
     1
 90
        0
176
     1
290
     0
176
     1
290
     1
176
     1
290
     1
176
     1
290
     0
176
     1
290
     0
176
     1
290
     0
176
     1
290
     0
176
     1
290
     0
176
     1
290
     0
176
     1
 90
       50
176
     1
 40
0.0
176
     1
 40
1.0
176
     1
 90
        0
176
     1
 62
    18
420
        0
176
     1
 90
       50
176
     1
 90
        3
176
     1
 62
     5
420
      255
176
     1
290
     0
176
     1
 90
       50
176
     1
 90
       50
176
     1
 90
       50
176
     1
290
     0
176
     1
 90
       50
176
     1
 62
   256
176
     0
 40
1.0
176
     0
 90
        2
176
     1
  1
strokes_ogs.tif
176
     1
290
     0
176
     1
 40
1.0
176
     1
 40
1.0
176
     1
  0
VISUALSTYLE
  5
F0
102
{ACAD_REACTORS
330
EF
102
}
330
EF
100
AcDbVisualStyle
  2
Flat
 70
     0
177
     3
291
     1
 70
    58
 90
        2
176
     1
 90
        1
176
     1
 90
        1
176
     1
 90
        2
176
     1
 40
0.6
176
     1
 40
30.0
176
     1
 62
     7
420
 16777215
176
     1
 90
        0
176
     1
 90
        0
176
     1
 62
     7
176
     1
 62
   257
176
     1
 90
        1
176
     1
 90
        1
176
     1
 40
1.0
176
     1
 90
        8
176
     1
 62
     7
176
     1
 40
1.0
176
     1
 90
        1
176
     1
 90
        6
176
     1
 90
        2
176
     1
 62
     7
176
     1
 90
        5
176
     1
 90
        0
176
     1
 90
        0
176
     1
290
     0
176
     1
 90
       13
176
     1
 40
0.0
176
     1
 90
        0
176
     1
290
     0
176
     1
290
     1
176
     1
290
     1
176
     1
290
     0
176
     1
290
     0
176
     1
290
     0
176
     1
290
     0
176
     1
290
     0
176
     1
290
     0
176
     1
 90
       50
176
     1
 40
0.0
176
     1
 40
1.0
176
     1
 90
        0
176
     1
 62
    18
420
        0
176
     1
 90
       50
176
     1
 90
        3
176
     1
 62
     5
420
      255
176
     1
290
     0
176
     1
 90
       50
176
     1
 90
       50
176
     1
 90
       50
176
     1
290
     0
176
     1
 90
       50
176
     1
 62
   256
176
     0
 40
1.0
176
     0
 90
        2
176
     1
  1
strokes_ogs.tif
176
     1
290
     0
176
     1
 40
1.0
176
     1
 40
1.0
176
     1
  0
VISUALSTYLE
  5
F1
102
{ACAD_REACTORS
330
EF
102
}
330
EF
100
AcDbVisualStyle
  2
FlatWithEdges
 70
     1
177
     3
291
     1
 70
    58
 90
        2
176
     1
 90
        1
176
     1
 90
        1
176
     1
 90
        2
176
     1
 40
0.6
176
     1
 40
30.0
176
     1
 62
     7
420
 16777215
176
     1
 90
        1
176
     1
 90
        0
176
     1
 62
     7
176
     1
 62
   257
176
     1
 90
        1
176
     1
 90
        1
176
     1
 40
1.0
176
     1
 90
        0
176
     1
 62
   257
176
     1
 40
1.0
176
     1
 90
        1
176
     1
 90
        6
176
     1
 90
        2
176
     1
 62
     7
176
     1
 90
        5
176
     1
 90
        0
176
     1
 90
        0
176
     1
290
     0
176
     1
 90
       13
176
     1
 40
0.0
176
     1
 90
        0
176
     1
290
     0
176
     1
290
     1
176
     1
290
     1
176
     1
290
     0
176
     1
290
     0
176
     1
290
     0
176
     1
290
     0
176
     1
290
     0
176
     1
290
     0
176
     1
 90
       50
176
     1
 40
0.0
176
     1
 40
1.0
176
     1
 90
        0
176
     1
 62
    18
420
        0
176
     1
 90
       50
176
     1
 90
        3
176
     1
 62
     5
420
      255
176
     1
290
     0
176
     1
 90
       50
176
     1
 90
       50
176
     1
 90
       50
176
     1
290
     0
176
     1
 90
       50
176
     1
 62
   256
176
     0
 40
1.0
176
     0
 90
        2
176
     1
  1
strokes_ogs.tif
176
     1
290
     0
176
     1
 40
1.0
176
     1
 40
1.0
176
     1
  0
VISUALSTYLE
  5
F2
102
{ACAD_REACTORS
330
EF
102
}
330
EF
100
AcDbVisualStyle
  2
Gouraud
 70
     2
177
     3
291
     1
 70
    58
 90
        2
176
     1
 90
        2
176
     1
 90
        1
176
     1
 90
        2
176
     1
 40
0.6
176
     1
 40
30.0
176
     1
 62
     7
420
 16777215
176
     1
 90
        0
176
     1
 90
        0
176
     1
 62
     7
176
     1
 62
   257
176
     1
 90
        1
176
     1
 90
        1
176
     1
 40
1.0
176
     1
 90
        0
176
     1
 62
     7
176
     1
 40
1.0
176
     1
 90
        1
176
     1
 90
        6
176
     1
 90
        2
176
     1
 62
     7
176
     1
 90
        5
176
     1
 90
        0
176
     1
 90
        0
176
     1
290
     0
176
     1
 90
       13
176
     1
 40
0.0
176
     1
 90
        0
176
     1
290
     0
176
     1
290
     1
176
     1
290
     1
176
     1
290
     0
176
     1
290
     0
176
     1
290
     0
176
     1
290
     0
176
     1
290
     0
176
     1
290
     0
176
     1
 90
       50
176
     1
 40
0.0
176
     1
 40
1.0
176
     1
 90
        0
176
     1
 62
    18
420
        0
176
     1
 90
       50
176
     1
 90
        3
176
     1
 62
     5
420
      255
176
     1
290
     0
176
     1
 90
       50
176
     1
 90
       50
176
     1
 90
       50
176
     1
290
     0
176
     1
 90
       50
176
     1
 62
   256
176
     0
 40
1.0
176
     0
 90
        2
176
     1
  1
strokes_ogs.tif
176
     1
290
     0
176
     1
 40
1.0
176
     1
 40
1.0
176
     1
  0
VISUALSTYLE
  5
F3
102
{ACAD_REACTORS
330
EF
102
}
330
EF
100
AcDbVisualStyle
  2
GouraudWithEdges
 70
     3
177
     3
291
     1
 70
    58
 90
        2
176
     1
 90
        2
176
     1
 90
        1
176
     1
 90
        2
176
     1
 40
0.6
176
     1
 40
30.0
176
     1
 62
     7
420
 16777215
176
     1
 90
        1
176
     1
 90
        0
176
     1
 62
     7
176
     1
 62
   257
176
     1
 90
        1
176
     1
 90
        1
176
     1
 40
1.0
176
     1
 90
        0
176
     1
 62
   257
176
     1
 40
1.0
176
     1
 90
        1
176
     1
 90
        6
176
     1
 90
        2
176
     1
 62
     7
176
     1
 90
        5
176
     1
 90
        0
176
     1
 90
        0
176
     1
290
     0
176
     1
 90
       13
176
     1
 40
0.0
176
     1
 90
        0
176
     1
290
     0
176
     1
290
     1
176
     1
290
     1
176
     1
290
     0
176
     1
290
     0
176
     1
290
     0
176
     1
290
     0
176
     1
290
     0
176
     1
290
     0
176
     1
 90
       50
176
     1
 40
0.0
176
     1
 40
1.0
176
     1
 90
        0
176
     1
 62
    18
420
        0
176
     1
 90
       50
176
     1
 90
        3
176
     1
 62
     5
420
      255
176
     1
290
     0
176
     1
 90
       50
176
     1
 90
       50
176
     1
 90
       50
176
     1
290
     0
176
     1
 90
       50
176
     1
 62
   256
176
     0
 40
1.0
176
     0
 90
        2
176
     1
  1
strokes_ogs.tif
176
     1
290
     0
176
     1
 40
1.0
176
     1
 40
1.0
176
     1
  0
VISUALSTYLE
  5
F7
102
{ACAD_REACTORS
330
EF
102
}
330
EF
100
AcDbVisualStyle
  2
Hidden
 70
     6
177
     3
291
     0
 70
    58
 90
        1
176
     1
 90
        2
176
     1
 90
        2
176
     1
 90
        0
176
     1
 40
0.6
176
     1
 40
30.0
176
     1
 62
     7
420
 16777215
176
     1
 90
        2
176
     1
 90
        2
176
     1
 62
     7
176
     1
 62
   257
176
     1
 90
        2
176
     1
 90
        1
176
     1
 40
40.0
176
     1
 90
        0
176
     1
 62
   257
176
     1
 40
1.0
176
     1
 90
        1
176
     1
 90
        6
176
     1
 90
        2
176
     1
 62
     7
176
     1
 90
        3
176
     1
 90
        0
176
     1
 90
        0
176
     1
290
     0
176
     1
 90
        1
176
     1
 40
0.0
176
     1
 90
        0
176
     1
290
     0
176
     1
290
     1
176
     1
290
     1
176
     1
290
     0
176
     1
290
     0
176
     1
290
     0
176
     1
290
     0
176
     1
290
     0
176
     1
290
     0
176
     1
 90
       50
176
     1
 40
0.0
176
     1
 40
1.0
176
     1
 90
        0
176
     1
 62
    18
420
        0
176
     1
 90
       50
176
     1
 90
        3
176
     1
 62
     5
420
      255
176
     1
290
     0
176
     1
 90
       50
176
     1
 90
       50
176
     1
 90
       50
176
     1
290
     0
176
     1
 90
       50
176
     1
 62
   256
176
     0
 40
1.0
176
     0
 90
        2
176
     1
  1
strokes_ogs.tif
176
     1
290
     0
176
     1
 40
1.0
176
     1
 40
1.0
176
     1
  0
VISUALSTYLE
  5
1E4
102
{ACAD_REACTORS
330
EF
102
}
330
EF
100
AcDbVisualStyle
  2
JitterOff
 70
    20
177
     3
291
     1
 70
    58
 90
        2
176
     0
 90
        2
176
     0
 90
        0
176
     0
 90
        0
176
     0
 40
0.6
176
     0
 40
30.0
176
     0
 62
     7
420
 16777215
176
     0
 90
        1
176
     0
 90
        4
176
     0
 62
     7
176
     0
 62
   257
176
     0
 90
        1
176
     0
 90
        1
176
     0
 40
1.0
176
     0
 90
       10
176
     2
 62
     7
176
     0
 40
1.0
176
     0
 90
        1
176
     0
 90
        6
176
     0
 90
        2
176
     0
 62
     7
176
     0
 90
        5
176
     0
 90
        0
176
     0
 90
        0
176
     0
290
     0
176
     0
 90
        1
176
     0
 40
0.0
176
     0
 90
        0
176
     0
290
     0
176
     1
290
     1
176
     1
290
     1
176
     1
290
     0
176
     1
290
     0
176
     1
290
     0
176
     1
290
     0
176
     1
290
     0
176
     1
290
     0
176
     1
 90
       50
176
     1
 40
0.0
176
     1
 40
1.0
176
     1
 90
        0
176
     1
 62
    18
420
        0
176
     1
 90
       50
176
     1
 90
        3
176
     1
 62
     5
420
      255
176
     1
290
     0
176
     1
 90
       50
176
     1
 90
       50
176
     1
 90
       50
176
     1
290
     0
176
     1
 90
       50
176
     1
 62
   256
176
     0
 40
1.0
176
     0
 90
        2
176
     1
  1
strokes_ogs.tif
176
     1
290
     0
176
     1
 40
1.0
176
     1
 40
1.0
176
     1
  0
VISUALSTYLE
  5
FD
102
{ACAD_REACTORS
330
EF
102
}
330
EF
100
AcDbVisualStyle
  2
Linepattern
 70
    14
177
     3
291
     1
 70
    58
 90
        2
176
     1
 90
        2
176
     1
 90
        1
176
     1
 90
        0
176
     1
 40
0.6
176
     1
 40
30.0
176
     1
 62
     7
420
 16777215
176
     1
 90
        1
176
     1
 90
        4
176
     1
 62
     7
176
     1
 62
   257
176
     1
 90
        7
176
     1
 90
        7
176
     1
 40
1.0
176
     1
 90
        8
176
     1
 62
     7
176
     1
 40
1.0
176
     1
 90
        1
176
     1
 90
        6
176
     1
 90
        2
176
     1
 62
     7
176
     1
 90
        5
176
     1
 90
        0
176
     1
 90
        0
176
     1
290
     0
176
     1
 90
        1
176
     1
 40
0.0
176
     1
 90
        0
176
     1
290
     0
176
     1
290
     1
176
     1
290
     1
176
     1
290
     0
176
     1
290
     0
176
     1
290
     0
176
     1
290
     0
176
     1
290
     0
176
     1
290
     0
176
     1
 90
       50
176
     1
 40
0.0
176
     1
 40
1.0
176
     1
 90
        0
176
     1
 62
    18
420
        0
176
     1
 90
       50
176
     1
 90
        3
176
     1
 62
     5
420
      255
176
     1
290
     0
176
     1
 90
       50
176
     1
 90
       50
176
     1
 90
       50
176
     1
290
     0
176
     1
 90
       50
176
     1
 62
   256
176
     0
 40
1.0
176
     0
 90
        2
176
     1
  1
strokes_ogs.tif
176
     1
290
     0
176
     1
 40
1.0
176
     1
 40
1.0
176
     1
  0
VISUALSTYLE
  5
1E5
102
{ACAD_REACTORS
330
EF
102
}
330
EF
100
AcDbVisualStyle
  2
OverhangOff
 70
    21
177
     3
291
     1
 70
    58
 90
        2
176
     0
 90
        2
176
     0
 90
        0
176
     0
 90
        0
176
     0
 40
0.6
176
     0
 40
30.0
176
     0
 62
     7
420
 16777215
176
     0
 90
        1
176
     0
 90
        4
176
     0
 62
     7
176
     0
 62
   257
176
     0
 90
        1
176
     0
 90
        1
176
     0
 40
1.0
176
     0
 90
        9
176
     2
 62
     7
176
     0
 40
1.0
176
     0
 90
        1
176
     0
 90
        6
176
     0
 90
        2
176
     0
 62
     7
176
     0
 90
        5
176
     0
 90
        0
176
     0
 90
        0
176
     0
290
     0
176
     0
 90
        1
176
     0
 40
0.0
176
     0
 90
        0
176
     0
290
     0
176
     1
290
     1
176
     1
290
     1
176
     1
290
     0
176
     1
290
     0
176
     1
290
     0
176
     1
290
     0
176
     1
290
     0
176
     1
290
     0
176
     1
 90
       50
176
     1
 40
0.0
176
     1
 40
1.0
176
     1
 90
        0
176
     1
 62
    18
420
        0
176
     1
 90
       50
176
     1
 90
        3
176
     1
 62
     5
420
      255
176
     1
290
     0
176
     1
 90
       50
176
     1
 90
       50
176
     1
 90
       50
176
     1
290
     0
176
     1
 90
       50
176
     1
 62
   256
176
     0
 40
1.0
176
     0
 90
        2
176
     1
  1
strokes_ogs.tif
176
     1
290
     0
176
     1
 40
1.0
176
     1
 40
1.0
176
     1
  0
VISUALSTYLE
  5
F9
102
{ACAD_REACTORS
330
EF
102
}
330
EF
100
AcDbVisualStyle
  2
Realistic
 70
     8
177
     3
291
     0
 70
    58
 90
        2
176
     1
 90
        3
176
     1
 90
        0
176
     1
 90
        2
176
     1
 40
0.6
176
     1
 40
30.0
176
     1
 62
     7
420
 16777215
176
     1
 90
        0
176
     1
 90
        0
176
     1
 62
     7
176
     1
 62
   257
176
     1
 90
        1
176
     1
 90
        1
176
     1
 40
1.0
176
     1
 90
        8
176
     1
 62
   257
176
     1
 40
1.0
176
     1
 90
        1
176
     1
 90
        6
176
     1
 90
        2
176
     1
 62
     7
176
     1
 90
        3
176
     1
 90
        0
176
     1
 90
        0
176
     1
290
     0
176
     1
 90
       13
176
     1
 40
0.0
176
     1
 90
        0
176
     1
290
     0
176
     1
290
     1
176
     1
290
     1
176
     1
290
     0
176
     1
290
     0
176
     1
290
     0
176
     1
290
     0
176
     1
290
     0
176
     1
290
     0
176
     1
 90
       50
176
     1
 40
0.0
176
     1
 40
1.0
176
     1
 90
        0
176
     1
 62
    18
420
        0
176
     1
 90
       50
176
     1
 90
        3
176
     1
 62
     5
420
      255
176
     1
290
     0
176
     1
 90
       50
176
     1
 90
       50
176
     1
 90
       50
176
     1
290
     0
176
     1
 90
       50
176
     1
 62
   256
176
     0
 40
1.0
176
     0
 90
        2
176
     1
  1
strokes_ogs.tif
176
     1
290
     0
176
     1
 40
1.0
176
     1
 40
1.0
176
     1
  0
VISUALSTYLE
  5
1F3
102
{ACAD_REACTORS
330
EF
102
}
330
EF
100
AcDbVisualStyle
  2
Shaded
 70
    27
177
     3
291
     0
 70
    58
 90
        2
176
     1
 90
        2
176
     1
 90
        1
176
     1
 90
        2
176
     1
 40
0.6
176
     1
 40
30.0
176
     1
 62
     7
420
 16777215
176
     1
 90
        0
176
     1
 90
        4
176
     1
 62
     7
176
     1
 62
   257
176
     1
 90
        1
176
     1
 90
        1
176
     1
 40
1.0
176
     1
 90
        8
176
     1
 62
   257
176
     1
 40
1.0
176
     1
 90
        1
176
     1
 90
        6
176
     1
 90
        2
176
     1
 62
     8
420
  7895160
176
     1
 90
        3
176
     1
 90
        0
176
     1
 90
        0
176
     1
290
     0
176
     1
 90
        5
176
     1
 40
0.0
176
     1
 90
        0
176
     1
290
     0
176
     1
290
     1
176
     1
290
     1
176
     1
290
     0
176
     1
290
     0
176
     1
290
     0
176
     1
290
     0
176
     1
290
     0
176
     1
290
     0
176
     1
 90
       50
176
     1
 40
0.0
176
     1
 40
1.0
176
     1
 90
        0
176
     1
 62
    18
420
        0
176
     1
 90
       50
176
     1
 90
        3
176
     1
 62
     5
420
      255
176
     1
290
     0
176
     1
 90
       50
176
     1
 90
       50
176
     1
 90
       50
176
     1
290
     0
176
     1
 90
       50
176
     1
 62
   256
176
     0
 40
1.0
176
     0
 90
        2
176
     1
  1
strokes_ogs.tif
176
     1
290
     0
176
     1
 40
1.0
176
     1
 40
1.0
176
     1
  0
VISUALSTYLE
  5
1F2
102
{ACAD_REACTORS
330
EF
102
}
330
EF
100
AcDbVisualStyle
  2
Shaded with edges
 70
    26
177
     3
291
     0
 70
    58
 90
        2
176
     1
 90
        2
176
     1
 90
        1
176
     1
 90
        2
176
     1
 40
0.6
176
     1
 40
30.0
176
     1
 62
     7
420
 16777215
176
     1
 90
        1
176
     1
 90
        2
176
     1
 62
     7
176
     1
 62
   257
176
     1
 90
        2
176
     1
 90
        1
176
     1
 40
1.0
176
     1
 90
        8
176
     1
 62
   257
176
     1
 40
1.0
176
     1
 90
        1
176
     1
 90
        6
176
     1
 90
        2
176
     1
 62
     7
176
     1
 90
        3
176
     1
 90
        0
176
     1
 90
        0
176
     1
290
     0
176
     1
 90
        5
176
     1
 40
0.0
176
     1
 90
        0
176
     1
290
     0
176
     1
290
     1
176
     1
290
     1
176
     1
290
     0
176
     1
290
     0
176
     1
290
     0
176
     1
290
     0
176
     1
290
     0
176
     1
290
     0
176
     1
 90
       50
176
     1
 40
0.0
176
     1
 40
1.0
176
     1
 90
        0
176
     1
 62
    18
420
        0
176
     1
 90
       50
176
     1
 90
        3
176
     1
 62
     5
420
      255
176
     1
290
     0
176
     1
 90
       50
176
     1
 90
       50
176
     1
 90
       50
176
     1
290
     0
176
     1
 90
       50
176
     1
 62
   256
176
     0
 40
1.0
176
     0
 90
        2
176
     1
  1
strokes_ogs.tif
176
     1
290
     0
176
     1
 40
1.0
176
     1
 40
1.0
176
     1
  0
VISUALSTYLE
  5
1EF
102
{ACAD_REACTORS
330
EF
102
}
330
EF
100
AcDbVisualStyle
  2
Shades of Gray
 70
    23
177
     3
291
     0
 70
    58
 90
        2
176
     1
 90
        2
176
     1
 90
        3
176
     1
 90
        0
176
     1
 40
0.6
176
     1
 40
30.0
176
     1
 62
     7
420
 16777215
176
     1
 90
        2
176
     1
 90
        2
176
     1
 62
     7
176
     1
 62
     7
176
     1
 90
        1
176
     1
 90
        1
176
     1
 40
40.0
176
     1
 90
        8
176
     1
 62
     7
176
     1
 40
1.0
176
     1
 90
        1
176
     1
 90
        6
176
     1
 90
        2
176
     1
 62
     7
176
     1
 90
        3
176
     1
 90
        0
176
     1
 90
        0
176
     1
290
     0
176
     1
 90
        1
176
     1
 40
0.0
176
     1
 90
        0
176
     1
290
     0
176
     1
290
     1
176
     1
290
     1
176
     1
290
     0
176
     1
290
     0
176
     1
290
     0
176
     1
290
     0
176
     1
290
     0
176
     1
290
     0
176
     1
 90
       50
176
     1
 40
0.0
176
     1
 40
1.0
176
     1
 90
        0
176
     1
 62
    18
420
        0
176
     1
 90
       50
176
     1
 90
        3
176
     1
 62
     5
420
      255
176
     1
290
     0
176
     1
 90
       50
176
     1
 90
       50
176
     1
 90
       50
176
     1
290
     0
176
     1
 90
       50
176
     1
 62
   256
176
     0
 40
1.0
176
     0
 90
        2
176
     1
  1
strokes_ogs.tif
176
     1
290
     0
176
     1
 40
1.0
176
     1
 40
1.0
176
     1
  0
VISUALSTYLE
  5
1F0
102
{ACAD_REACTORS
330
EF
102
}
330
EF
100
AcDbVisualStyle
  2
Sketchy
 70
    24
177
     3
291
     0
 70
    58
 90
        1
176
     1
 90
        2
176
     1
 90
        2
176
     1
 90
        0
176
     1
 40
0.6
176
     1
 40
30.0
176
     1
 62
     7
420
 16777215
176
     1
 90
        2
176
     1
 90
        2
176
     1
 62
     7
176
     1
 62
     7
176
     1
 90
        1
176
     1
 90
        1
176
     1
 40
40.0
176
     1
 90
       11
176
     1
 62
     7
176
     1
 40
1.0
176
     1
 90
        1
176
     1
 90
        6
176
     1
 90
        2
176
     1
 62
     7
176
     1
 90
        6
176
     1
 90
        0
176
     1
 90
        0
176
     1
290
     0
176
     1
 90
        1
176
     1
 40
0.0
176
     1
 90
        0
176
     1
290
     0
176
     1
290
     1
176
     1
290
     1
176
     1
290
     0
176
     1
290
     0
176
     1
290
     0
176
     1
290
     0
176
     1
290
     0
176
     1
290
     0
176
     1
 90
       50
176
     1
 40
0.0
176
     1
 40
1.0
176
     1
 90
        0
176
     1
 62
    18
420
        0
176
     1
 90
       50
176
     1
 90
        3
176
     1
 62
     5
420
      255
176
     1
290
     0
176
     1
 90
       50
176
     1
 90
       50
176
     1
 90
       50
176
     1
290
     0
176
     1
 90
       50
176
     1
 62
   256
176
     0
 40
1.0
176
     0
 90
        2
176
     1
  1
strokes_ogs.tif
176
     1
290
     0
176
     1
 40
1.0
176
     1
 40
1.0
176
     1
  0
VISUALSTYLE
  5
FC
102
{ACAD_REACTORS
330
EF
102
}
330
EF
100
AcDbVisualStyle
  2
Thicken
 70
    13
177
     3
291
     1
 70
    58
 90
        2
176
     1
 90
        2
176
     1
 90
        1
176
     1
 90
        0
176
     1
 40
0.6
176
     1
 40
30.0
176
     1
 62
     7
420
 16777215
176
     1
 90
        1
176
     1
 90
        4
176
     1
 62
     7
176
     1
 62
   257
176
     1
 90
        1
176
     1
 90
        1
176
     1
 40
1.0
176
     1
 90
       12
176
     1
 62
     7
176
     1
 40
1.0
176
     1
 90
        1
176
     1
 90
        6
176
     1
 90
        2
176
     1
 62
     7
176
     1
 90
        5
176
     1
 90
        0
176
     1
 90
        0
176
     1
290
     0
176
     1
 90
        1
176
     1
 40
0.0
176
     1
 90
        0
176
     1
290
     0
176
     1
290
     1
176
     1
290
     1
176
     1
290
     0
176
     1
290
     0
176
     1
290
     0
176
     1
290
     0
176
     1
290
     0
176
     1
290
     0
176
     1
 90
       50
176
     1
 40
0.0
176
     1
 40
1.0
176
     1
 90
        0
176
     1
 62
    18
420
        0
176
     1
 90
       50
176
     1
 90
        3
176
     1
 62
     5
420
      255
176
     1
290
     0
176
     1
 90
       50
176
     1
 90
       50
176
     1
 90
       50
176
     1
290
     0
176
     1
 90
       50
176
     1
 62
   256
176
     0
 40
1.0
176
     0
 90
        2
176
     1
  1
strokes_ogs.tif
176
     1
290
     0
176
     1
 40
1.0
176
     1
 40
1.0
176
     1
  0
VISUALSTYLE
  5
F6
102
{ACAD_REACTORS
330
EF
102
}
330
EF
100
AcDbVisualStyle
  2
Wireframe
 70
     5
177
     3
291
     0
 70
    58
 90
        0
176
     1
 90
        2
176
     1
 90
        0
176
     1
 90
        0
176
     1
 40
0.6
176
     1
 40
30.0
176
     1
 62
     7
420
 16777215
176
     1
 90
        1
176
     1
 90
        4
176
     1
 62
     7
176
     1
 62
   257
176
     1
 90
        1
176
     1
 90
        1
176
     1
 40
1.0
176
     1
 90
        0
176
     1
 62
   257
176
     1
 40
1.0
176
     1
 90
        1
176
     1
 90
        6
176
     1
 90
        2
176
     1
 62
     7
176
     1
 90
        3
176
     1
 90
        0
176
     1
 90
        0
176
     1
290
     0
176
     1
 90
        1
176
     1
 40
0.0
176
     1
 90
        0
176
     1
290
     0
176
     1
290
     1
176
     1
290
     1
176
     1
290
     0
176
     1
290
     0
176
     1
290
     0
176
     1
290
     0
176
     1
290
     0
176
     1
290
     0
176
     1
 90
       50
176
     1
 40
0.0
176
     1
 40
1.0
176
     1
 90
        0
176
     1
 62
    18
420
        0
176
     1
 90
       50
176
     1
 90
        3
176
     1
 62
     5
420
      255
176
     1
290
     0
176
     1
 90
       50
176
     1
 90
       50
176
     1
 90
       50
176
     1
290
     0
176
     1
 90
       50
176
     1
 62
   256
176
     0
 40
1.0
176
     0
 90
        2
176
     1
  1
strokes_ogs.tif
176
     1
290
     0
176
     1
 40
1.0
176
     1
 40
1.0
176
     1
  0
VISUALSTYLE
  5
1F1
102
{ACAD_REACTORS
330
EF
102
}
330
EF
100
AcDbVisualStyle
  2
X-Ray
 70
    25
177
     3
291
     0
 70
    58
 90
        2
176
     1
 90
        2
176
     1
 90
        1
176
     1
 90
        1
176
     1
 40
0.5
176
     1
 40
30.0
176
     1
 62
     7
420
 16777215
176
     1
 90
        1
176
     1
 90
        0
176
     1
 62
     7
176
     1
 62
   257
176
     1
 90
        1
176
     1
 90
        1
176
     1
 40
1.0
176
     1
 90
        8
176
     1
 62
     7
176
     1
 40
1.0
176
     1
 90
        1
176
     1
 90
        6
176
     1
 90
        2
176
     1
 62
     7
176
     1
 90
        3
176
     1
 90
        0
176
     1
 90
        0
176
     1
290
     0
176
     1
 90
       13
176
     1
 40
0.0
176
     1
 90
        0
176
     1
290
     0
176
     1
290
     1
176
     1
290
     1
176
     1
290
     0
176
     1
290
     0
176
     1
290
     0
176
     1
290
     0
176
     1
290
     0
176
     1
290
     0
176
     1
 90
       50
176
     1
 40
0.0
176
     1
 40
1.0
176
     1
 90
        0
176
     1
 62
    18
420
        0
176
     1
 90
       50
176
     1
 90
        3
176
     1
 62
     5
420
      255
176
     1
290
     0
176
     1
 90
       50
176
     1
 90
       50
176
     1
 90
       50
176
     1
290
     0
176
     1
 90
       50
176
     1
 62
   256
176
     0
 40
1.0
176
     0
 90
        2
176
     1
  1
strokes_ogs.tif
176
     1
290
     0
176
     1
 40
1.0
176
     1
 40
1.0
176
     1
  0
DICTIONARYVAR
  5
146
102
{ACAD_REACTORS
330
5E
102
}
330
5E
100
DictionaryVariables
280
     0
  1
1:1
  0
DICTIONARYVAR
  5
259
102
{ACAD_REACTORS
330
5E
102
}
330
5E
100
DictionaryVariables
280
     0
  1
3.500000
  0
DICTIONARYVAR
  5
25A
102
{ACAD_REACTORS
330
5E
102
}
330
5E
100
DictionaryVariables
280
     0
  1
acadiso.lin
  0
DICTIONARYVAR
  5
145
102
{ACAD_REACTORS
330
5E
102
}
330
5E
100
DictionaryVariables
280
     0
  1
STANDARD
  0
DICTIONARYVAR
  5
84
102
{ACAD_REACTORS
330
5E
102
}
330
5E
100
DictionaryVariables
280
     0
  1
STANDARD
  0
DICTIONARYVAR
  5
227
102
{ACAD_REACTORS
330
5E
102
}
330
5E
100
DictionaryVariables
280
     0
  1
Metric50
  0
DICTIONARYVAR
  5
228
102
{ACAD_REACTORS
330
5E
102
}
330
5E
100
DictionaryVariables
280
     0
  1
Metric50
  0
DICTIONARYVAR
  5
5F
102
{ACAD_REACTORS
330
5E
102
}
330
5E
100
DictionaryVariables
280
     0
  1
2
  0
DICTIONARYVAR
  5
63
102
{ACAD_REACTORS
330
5E
102
}
330
5E
100
DictionaryVariables
280
     0
  1
1
  0
DICTIONARYVAR
  5
1AE
102
{ACAD_REACTORS
330
5E
102
}
330
5E
100
DictionaryVariables
280
     0
  1
0
  0
DICTIONARYVAR
  5
1AF
102
{ACAD_REACTORS
330
5E
102
}
330
5E
100
DictionaryVariables
280
     0
  1
0
  0
DICTIONARY
  5
205
330
22
100
AcDbDictionary
280
     1
281
     1
  0
DICTIONARY
  5
1F9
330
ED
100
AcDbDictionary
280
     1
281
     1
  3
FBXASSET
360
1FA
  0
DICTIONARY
  5
1F7
330
EC
100
AcDbDictionary
280
     1
281
     1
  3
FBXASSET
360
1F8
  0
DICTIONARY
  5
173
330
EE
100
AcDbDictionary
280
     1
281
     1
  3
BUMPTILE
360
175
  3
DIFFUSETILE
360
174
  3
FBXASSET
360
1FB
  3
OPACITYTILE
360
176
  3
REFLECTIONTILE
360
177
  0
DICTIONARY
  5
162
330
7F
100
AcDbDictionary
280
     1
281
     1
  3
ACAD_ROUNDTRIP_2008_TABLESTYLE_CELLSTYLEMAP
360
CD3
  0
XRECORD
  5
1FA
102
{ACAD_REACTORS
330
1F9
102
}
330
1F9
100
AcDbXrecord
280
     1
 70
     1
 90
429727718
  1
D62C5603-E3A1-4AEA-B7FB-FE5D8D0755AF
310
504B03040A0000080000CC70623B3DEE336E79000000790000001B0000006175746F6465736B2D64657369676E2D7061636B6167652E786D6C3C3F786D6C2076657273696F6E3D22312E302220656E636F64696E673D227574662D3822203F3E3C666F726D6174733E3C666F726D61743E687474703A2F2F736368656D612E
310
6175746F6465736B2E636F6D2F64657369676E2D7061636B6167652F323030393C2F666F726D61743E3C2F666F726D6174733E504B0304140006080800CC70623BD486FD9CA0000000F4000000130000005B436F6E74656E745F54797065735D2E786D6C7D8EC10E82300C865F65E91D8A1E8C310C0EEA1BF002731658846E
310
D98AC1B77784ABF1D8FE5FBFBF75BBCE937A534CCEB38643598122B6FEE978D0B0485F9C41B54DDD7D022595594E1A469170414C76A4D9A4D207E29CF43ECE46F218070CC6BECC4078ACAA135ACF422C856C0E68EA1BF5669944DDD7BCDE7B1F8E415D77AECB980613C2E4AC91FC167A2B244592486606FC29C8FD7F045B9A
310
EF7053A7E60B504B0304140006080800CC70623B853B8169EB0000007C01000008000000636F72652E786D6C8D90416EC3201045AF62CDB6C206821CC7C244919D9CA01740401C94182C03558F5F9C3852BBEB6A467FFE9B197D7EFC9E1EC5975982F5AE035262288C535E5B377690E21535501C055FBC8FBF6C503839990E
310
5619041F179FE64D52DE45E362569DD7661365082642A11EB9E920A89B99642953CC8E702F67A9EE7234257977194EC9EAE275C4EABCCF5EAD5940D4AC6F0E35A568B8F43562CD7046CD199FD07E60174276A7BE677B5EADB0E0D14EEFFB6A31321A0D82627C4084204C3F096B71DD52F6819B16635EADF63F509AF53FA164
310
5DDCD1EDDD17164090FCC8732078B56691CB33A85CD7DCC40F504B0304140006080800CC70623B55019EA25F0000007C00000007000000636E782E786D6C4DCB3B0E80201045D1AD90E915ED2CF8AC45050C11660C8261F98AB1B07AC9C97D42D718D865D3E909258CFD00CCE24AC6E326A164D74DC0B4128928FF32603847
310
2BA13128B1252AC747C6BAB984FC68F0B87FE8960A5C09FE86CFB69FBA01504B0304140006080800CC70623BDBABAAF470010000D40300000C0000006662782F636F72652E786D6CC553D16E823014FD95A6AF4B694182CC941A83FA05FB810A9511A125A5257EFE2E82712ECEB8A7F100CD39F7F69E734AF9FADC366850B6
310
AF8DCE7018308C942E4C59EB2AC3DE1D498AD15A706B8CFB56869196ADCAF00863C12B6B7C374385D14E6907A836A59A41D9F7CA615434B0C8705F7CAA5606D23BA8E84F41278B93AC54100640439DE0BDB320004D43C63716C7C399D30917DCFBBA9CD9BA8469F5B156168B24CED3F7248AC8769F27244EB73B92EED8862C
310
B7F13E0C179B3C8F979C8ECD82BBBABDAA2BAC924E9558448CBD9330242CFA08E3154B5651FCC6D215639C8EE5774DBE2B5F6CF2B5768B68963BB5F5588420E442FC700B1139D4CB01F450C1E918227C2E09DF070D8140C84E1E9AAB8F1340832A9CB13130A5F1376A908D57309505ECF2A0DF179C4E9D30F5B239B87E3823
310
7A79C6F31DE1A8A5AEC08474B03C7837EAE4938639B44E5932B833D2C6B6B279CDC613877FA26EE21F4A2A4C63EC7F29A2F301D1F9F7A0E37D145F504B0304140006080800CC70623B9C113CC27E0000009D0000000B0000006662782F636E782E786D6C4DCCDF0A83201C86E15B91DFB94BFB330DD428C8FB886521330DA7
310
6397BF1A1DECE883878F57749FCDA1B7892F1BBC047A23808C7F84D9FA55424E0BE6803A256208E9EF06C84F9B91703228B1C690F78B66B34CD9A5439DF5CF0BFBF65E35BCA1B8D6A5C6F540381E886698B5741C695F9503EBA150A2F8958E3DC3EA0B504B0304140006080800CC70623B7DF2F77C2A010000120200003100
310
00006662782F41393633353835312D344632462D344230382D423046372D3739314545314133324237412F636F72652E786D6C8D51DB8EC22014FC15C2939B0D2DB4B45643319AE817EC0F6041255A68B86CFCFC856D4D76DF7CE190393373060EDB3DC707F856CE6B6B7A480A0C81328395DA5C7B18C3057510EC3873D686
310
3F34088C18550F330C39BB3A1BA7051AAC09CA84841A2BD5020AEF55806078A44B0FFD7053A328440C89E1EFC52486BBB8AA8214A99D789CF9E05200300FC927E4FB4D5B375D43103D5527440FB843077C5AA3F5861C8F645F5787F59E95B390B318B55CE45AA638FAA2957BD7248B390B7A7CC51F9C124149C82B8C378810
310
84AB2F42B7B8DD56F413775B8C5999E9FF4471926F8AA236A1AE96B8B3CC434E5839373893369E1FAF30EA395917409EB7F26AF8801C171837A4A6AC9C89E9F9C9B1A58BA30FD6A5EF5DDDCF894B9AD9B6A59C957943A9FCAE2FD5BC4DFE03504B0304140006080800CC70623BAD7543B64E01000033030000300000006662
310
782F41393633353835312D344632462D344230382D423046372D3739314545314133324237412F636E782E786D6CD593CD6EC32010845F0571AD6CE3D48AD20813A9873E410FBD12D82434182C7EAAE6EDBB2424CD25871E7B41D6EC30B3FA84F9E67BB2E40B4234DE8DB46F1925E094D7C6ED479AD3AE5951B2113C789FEE
310
6C943839C1488B4C05DF079FE72A69D8C96C13AAD6B8631503449F83828872B949AC57D26200B826A308D316B4064D6E46FCDA41C05550DC9E483A00797BFD207EFB092A45DE9514C1BBD22178396BD39D891265658C238DEA00936C654E5E433CB65A26D9F6EDB5EBC14EBF49A45CB856E66048291F6939A9A81BB5C89177
310
38143CA680F4AA299D66A042CEB3354A2684DC9D8D178FE0D9B8B41CAAD720F880EE7EF93C0C18769E099ECC04D5A102C8049A8A05632F4DDF376CF1DE0F6BB65C2F8627B65A33C6BB62177CEBBDAD973006829F89F22E814B54F4BC2BE347F8AA8F681390B50FA73F804400B5F542E796F19FF974E7F78DB802FE05E20750
310
4B0304140006080800CC70623BE75B7789680500003C100000340000006662782F41393633353835312D344632462D344230382D423046372D3739314545314133324237412F6F626A656374732E786D6CAD575B8F9B3818FD2B887D06C22499CB8AA1CA655245D5B455A356FB305264C061D8018C6C3393D95FBFC7600890
310
A4CD5EF210B0B1BFEBF98E3F7B1FF6596ABC522E1296DF9BAE3D320D9A872C4AF2F8DE2CE5CEBA358D0FBEC719939D65A691938CDE9B6ADAF4BD98B3B2D05311DD91329583D9D5FC0F438434A7A611A644887B5384CF34233629258BA878B12322891DEFF6B66BD70BFB62634E8AE781D082709A4B588AF91C528CDA28B73F
310
1C998EEF39EABBEFA97FBD6A7C7E9553F9D3D79FE442923C3C523610337627CB87ABE99D359D4CC6D6E4FACAB5E6ABF9D2726FC6A3C5F56271377BB88362213924694B38DD99FE47C48627A1E7D49F5A8BB5E1A74C0A599ED3B0F21F1E56366B89112D681E218F0915D0D6F17AD41FBA2A369DCF6335D62ABBD39779D5DDD1
310
11D4D8DE3CBB96B2E04FB8202E41051754A1AA8E8F76B4C6DFE810B580B1547F4B84911149794252234D024EF8BBE963A95AE27B3D310A9D5C215C7960FAEE415ED75694C6AFB17BCACA5D99A60A9AA65F217B0BFC53292ACB92BF283FAD0D3621576592CB5BED907C2FA8E9DF794E35E97BEA31BED21FEB401ABB94C44839
310
DCACBF0E1C5DA8DA5B2F4DFFD32AD86F543D9E565E7056502E157C00AD2671CD534549AB752FCA9CDA00677A313F04E51B22FF19E57B300579E3C97EB29F682D92935CEC18CF901B7B54FD8C51F362B56FC72FE0B3C1EAE335EDCCBF5AEC39ADB17DC238973F804BA5E6F6BFE7AF1FB32E523BE9F3BD571418E3631DCA4D48
310
5250CF639223210A9446CA30052EDF057BD35F8329C1ECD84552BF0DC8D18BE7BCE23BFE6BD960AB4A7DE79923A103BEBD80F911CBAA2C60DB19B01CF164A5583B772EE6D3FFA56666CBCDA74DC97724A48F9A58967497E489C4D979006FD7A05E227A1EBDD0F737C623387A9C844D3709995625106D157315F8B8392CD4E0
310
A0B9A720C4BE9829CEF37EA1E13111214D53925356365ADA634861B52519DD27A00AEB808EAF0628E6F435519D446F45CF2C9CF5214F0A15B2F6D06B79DA3EE3CBF7F56780D2F4E7EF73A0F5E5B02A38D07DC852C6B7C1FBB6664213E0C39E3EBA7FF4E1AD23EA2829407C85E586727488B751B2DB9502BC7B228A3FD68B6E
310
A65A22397E690AA8D158D7E404EC8CDA235CC3B7D1898680131CEC2CDF2638C65196279577750F15884AEE19F94199155B92B13297978469D4F8D358DF0AEF7631E28DC8F0D9F437D5D39A83B2231A1D52D543813A824EF8D44BCFF2FA6A31BD1E8DAD87F1CCB526B3879935BF59CDADD5C37479BB1CDD4CA7B3556B516589
310
EF352754B706114D9C885EC9131DE6EFEB43D99AFE2391C2F958179413D7CFEF6B1B6DB1E7600F00DE6E5C67454A339A4BA2E0FBA85ED26F045D454F463DBFCE484C2F90F2E5E3666003662ED8F755951A7D1BECD5B30B550B2785C8E7320B7292A4838DDA71BBC863ED7613CAF659337A3354231D4FF4A182A54904C2898C
310
98B28C4AD0CE056CCF332A80986E571EE9DBC305BB5FEB7E509220A58D25CF042D712A806AC0AD0C657FDEF80D2D9CEAA2EE4D1C76F60BFE74219A06527D6F82DF6412526107381E55E353090704D085B52408A8913C4ED159D79BDA71BB4BC506F4831350EB6F975CD22D69BF7AC49B91A2C0A9DDA3D5CA36AD20FC478E37
310
E61844E2352865EBCB61A275A65283CAAA9DD27703B4102F5AF51EF5F573B75CBB5AD38BC845F7A49F82A0966A49C2E3EA5EA0ECD326CD965F1DB402C6FA8B51A4658C5C5E2EC9E214602E55810345408596591009A82E7E7FFACA19EEA299B14A0081A705CB3296EBC14CDF658DCD336EA6D1136881AAEB87B81AB9EE53D5
310
F5EB8BC8362082DA24122F98680A4E7930C01A0079749CEA14382A0783E5EBA5A10F8C098456A03D6A4AEB6BB881E2513747552A5DB22C7EDAF83BD5528081A365F7FF06504B0304140006080000CC70623B000000000000000000000000350000006662782F41393633353835312D344632462D344230382D423046372D37
310
39314545314133324237412F76657274696365732E62696E504B0304140006080800CC70623BF270F1330600000004000000360000006662782F41393633353835312D344632462D344230382D423046372D3739314545314133324237412F747269616E676C65732E62696E636660600000504B0304140006080000CC7062
310
3B000000000000000000000000370000006662782F41393633353835312D344632462D344230382D423046372D3739314545314133324237412F617474726962757465732E62696E504B0304140006080800CC70623B08DA0BD19000000041010000360000006662782F41393633353835312D344632462D344230382D4230
310
46372D3739314545314133324237412F6469726563746F72792E786D6C858F410AC3201045AF22B36F53E9A60B35CBEEBAE80D244E44489C6234F4F835464A48035D0DF398FF9F8AF63D0E6CC63039F212F8F9020C7D47C6792B21C5FE7403D62A1188E2E60C98D7234A5830286103A55745067B9D86B8A3CF9C7F90C11DE6
310
07FB144396D7B6A82D282E9A152AD114D5EF2CB866EEE831B8EEA07A7BB5A8D7D61A2BAAEB7FD5F70921FF497D00504B0304140006080800CC70623BEDD1DC58FD000000A00100003B0000006662782F41393633353835312D344632462D344230382D423046372D3739314545314133324237412F7265736F75726365732F
310
636F72652E786D6C8D504B6E833010BD0A9A6D65B00922041947112427E8052C33A156828DFCA97AFC9A40A576D7CDCCE87D344F8F9FBFE667F689CE6B6B3A6039850C8DB2A336530731DC4903D95970676DF82583CCC8193B5861107C72362E3BA4AC096842428D1D7107A5F7182053CF7474E0D507CE32973124857FE48B
310
540F3961CEF244279DE03EB81420DB9EAC1384436FA353E879B1B182C7A8C75DA3C7F453DF353A1075D537A7BA6464B8F535A99AE14A9A2BBD90E350DD183B5CFABE3AF262350B1EF4FC9351399401471025A527C218A1E53BAB5A5AB765F5469B96525EACF23FA6B88CFF34456DC2A1DCE36E360F82A5202F42F062ED2BAD
310
579969AFDD8A6F504B010214000A0000080000CC70623B3DEE336E79000000790000001B00000000000000000000000000000000006175746F6465736B2D64657369676E2D7061636B6167652E786D6C504B01021400140006080800CC70623BD486FD9CA0000000F40000001300000000000000000000000000B20000005B
310
436F6E74656E745F54797065735D2E786D6C504B01021400140006080800CC70623B853B8169EB0000007C010000080000000000000000000000000083010000636F72652E786D6C504B01021400140006080800CC70623B55019EA25F0000007C000000070000000000000000000000000094020000636E782E786D6C504B
310
01021400140006080800CC70623BDBABAAF470010000D40300000C00000000000000000000000000180300006662782F636F72652E786D6C504B01021400140006080800CC70623B9C113CC27E0000009D0000000B00000000000000000000000000B20400006662782F636E782E786D6C504B01021400140006080800CC70
310
623B7DF2F77C2A010000120200003100000000000000000000000000590500006662782F41393633353835312D344632462D344230382D423046372D3739314545314133324237412F636F72652E786D6C504B01021400140006080800CC70623BAD7543B64E010000330300003000000000000000000000000000D2060000
310
6662782F41393633353835312D344632462D344230382D423046372D3739314545314133324237412F636E782E786D6C504B01021400140006080800CC70623BE75B7789680500003C10000034000000000000000000000000006E0800006662782F41393633353835312D344632462D344230382D423046372D3739314545
310
314133324237412F6F626A656374732E786D6C504B01021400140006080000CC70623B0000000000000000000000003500000000000000000000000000280E00006662782F41393633353835312D344632462D344230382D423046372D3739314545314133324237412F76657274696365732E62696E504B01021400140006
310
080800CC70623BF270F133060000000400000036000000000000000000000000007B0E00006662782F41393633353835312D344632462D344230382D423046372D3739314545314133324237412F747269616E676C65732E62696E504B01021400140006080000CC70623B0000000000000000000000003700000000000000
310
000000000000D50E00006662782F41393633353835312D344632462D344230382D423046372D3739314545314133324237412F617474726962757465732E62696E504B01021400140006080800CC70623B08DA0BD1900000004101000036000000000000000000000000002A0F00006662782F41393633353835312D344632
310
462D344230382D423046372D3739314545314133324237412F6469726563746F72792E786D6C504B01021400140006080800CC70623BEDD1DC58FD000000A00100003B000000000000000000000000000E1000006662782F41393633353835312D344632462D344230382D423046372D3739314545314133324237412F7265
310
736F75726365732F636F72652E786D6C504B0506000000000E000E0080040000641100000000
  0
XRECORD
  5
1F8
102
{ACAD_REACTORS
330
1F7
102
}
330
1F7
100
AcDbXrecord
280
     1
 70
     1
 90
429727718
  1
30362254-06B7-45E0-A893-8CFA70E3D6BC
310
504B03040A0000080000CC70623B3DEE336E79000000790000001B0000006175746F6465736B2D64657369676E2D7061636B6167652E786D6C3C3F786D6C2076657273696F6E3D22312E302220656E636F64696E673D227574662D3822203F3E3C666F726D6174733E3C666F726D61743E687474703A2F2F736368656D612E
310
6175746F6465736B2E636F6D2F64657369676E2D7061636B6167652F323030393C2F666F726D61743E3C2F666F726D6174733E504B0304140006080800CC70623BD486FD9CA0000000F4000000130000005B436F6E74656E745F54797065735D2E786D6C7D8EC10E82300C865F65E91D8A1E8C310C0EEA1BF002731658846E
310
D98AC1B77784ABF1D8FE5FBFBF75BBCE937A534CCEB38643598122B6FEE978D0B0485F9C41B54DDD7D022595594E1A469170414C76A4D9A4D207E29CF43ECE46F218070CC6BECC4078ACAA135ACF422C856C0E68EA1BF5669944DDD7BCDE7B1F8E415D77AECB980613C2E4AC91FC167A2B244592486606FC29C8FD7F045B9A
310
EF7053A7E60B504B0304140006080800CC70623B1EC5D7A3EB0000007C01000008000000636F72652E786D6C8D90416EC3201045AF82665B6103C6756C6122AB4D4ED00B204C5C94182C03558F5F9C3852BBEB6A467FFE9B197D71FC9E6FE8CBACC17AD7032D0820E3B41FAD9B7A48F1820F808E52ACDEC75F36404ECDA687
310
4D0629A6D5A76597B477D1B89855E747B38B2A041301E95B6E7A08FAD3CCAA50296647B8168BD2573599823EBB0CA76447F43862C7BCCF5EAC59410E4DDD9C7973C2755553CCCFA4C603E3040F1565ED3B1FDE4E432BCA0D9622DAF9795FAF464533826484B498524CD807E51D79ED187F21878E10516EF63F505AC67F42C9
310
BA58B1FDDD071640D2FCC87D2045B96591CB3DA85CB7DCE40F504B0304140006080800CC70623B55019EA25F0000007C00000007000000636E782E786D6C4DCB3B0E80201045D1AD90E915ED2CF8AC45050C11660C8261F98AB1B07AC9C97D42D718D865D3E909258CFD00CCE24AC6E326A164D74DC0B4128928FF32603847
310
2BA13128B1252AC747C6BAB984FC68F0B87FE8960A5C09FE86CFB69FBA01504B0304140006080800CC70623B8C9102E971010000D40300000C0000006662782F636F72652E786D6CC5535B6E833010BC8AE5DF0A6C08340F1947A84D4ED00B38C6A128602363A31CBFCB234A53A551FA553EC09AD9F5CE8C31DB9E9B1AF5CA
310
7695D1198E428A91D2D214952E33ECDD315861B4E5CC1AE3BE9561A445A3323CC098B3D21ADFCE9034DA29ED00D5A6503328BA4E398C640D8B0C77F253352214DE4145770A5B214FA2546114020D759C75CE8200340D19DE981F0F6746269C33EFAB6266AB02A655C74A59CCF365BADC27CB5D902ED22848F6340DF238A141
310
BE88E2F57B92BFEDF23523433367AE6A2EEAA455C2A902F398D2751045018D3FA264435F3771F242571B4A1919CA6F9A7C5B3CD9E42BED16F12C776AEB308F40C848FC700B1139D4891EF410CEC810227CC6846F8386402064270EF5C5C709A05E49676C024C61FC95EA45ED154CA5211D1FF4FB8291A913A68E9B83EBBB33
310
E2A7673CDE118E5AE8124C0807CB8377834E366998436B950D7A7746DAD846D4CFD978E0F04FD455FC5D49D2D4C6FE9722321F10997F0F32DC47FE05504B0304140006080800CC70623BFFEA85907E0000009D0000000B0000006662782F636E782E786D6C4DCCD10A83201886E15B91FFDC95D95A811AB6F23E625948A6C3
310
E9D8E5AF46073BFAE0E1E365ED67B3E8ADC3CB78C7815C7240DA3DFC64DCC221C519D7805AC182F7F1EF06C88D9BE6703008B6049F9E274D7A1E938DBB5AE3D6131B2589BA0D3D965551E0B2EA732C9B9A624AAEB41E3A557677029960D9AFB4EF11165F504B0304140006080800CC70623B4FEEA4082C0100001202000031
310
0000006662782F39464131463745442D413632322D343644302D413938332D3331353338454246344243312F636F72652E786D6C8D515B6EC32010BC0AE2AB55850DD871ED0813254D72825EC00192A2C460F1A872FC42ED48ED5F7E00CDCECCCEB26C731F6FE05B39AFADE921293004CA082BB5B9F43086336A21D870E6AC
310
0D7F68109861543DCC30E4ECE26C9C164858139409093556AA051CBC570102714B8F1E7AF1A5C6A11862480C7F2DA6415C878B2A4891CA89C7990F2E050073937C42DE1DB7E4F87ED8A36D4329AA9B3D46DBAEAD504556557BD81DEBDD0761E52CE42C462D17B996298E3E6BE59E35C962CE821E1FF18553435012728A7187
310
0841987E927A8D9B35ADDF70BBC6989599FE4F1427F9A4286A132ABAC49D651EF234CD5CE04CDA78BA3DC2A8FB645D00B9DF8B57E215725C60BCA2A463E54C4CE327C7A65E1C7DB02E7DEFCBF594B864C5CA6CDBD49C957943E9FA5D5FBAF336F90F504B0304140006080800CC70623BAD7543B64E01000033030000300000
310
006662782F39464131463745442D413632322D343644302D413938332D3331353338454246344243312F636E782E786D6CD593CD6EC32010845F0571AD6CE3D48AD20813A9873E410FBD12D82434182C7EAAE6EDBB2424CD25871E7B41D6EC30B3FA84F9E67BB2E40B4234DE8DB46F1925E094D7C6ED479AD3AE5951B2113C
310
789FEE6C943839C1488B4C05DF079FE72A69D8C96C13AAD6B8631503449F83828872B949AC57D26200B826A308D316B4064D6E46FCDA41C05550DC9E483A00797BFD207EFB092A45DE9514C1BBD22178396BD39D891265658C238DEA00936C654E5E433CB65A26D9F6EDB5EBC14EBF49A45CB856E66048291F6939A9A81BB5
310
C8917738143CA680F4AA299D66A042CEB3354A2684DC9D8D178FE0D9B8B41CAAD720F880EE7EF93C0C18769E099ECC04D5A102C8049A8A05632F4DDF376CF1DE0F6BB65C2F8627B65A33C6BB62177CEBBDAD973006829F89F22E814B54F4BC2BE347F8AA8F681390B50FA73F804400B5F542E796F19FF974E7F78DB802FE05
310
E207504B0304140006080800CC70623B16AB87BA640500003C100000340000006662782F39464131463745442D413632322D343644302D413938332D3331353338454246344243312F6F626A656374732E786D6CAD575B6FA33818FD2B887DE6924B3BED8A326A92B68A663B534DD4D13E548A0C38942D60649B369D5FBFC7
310
600890A493BDE42160637FD7F31D7FF63E6FB3D478A55C242CBF3247B66B1A340F5994E4F19559CA8D75611A9F7D8F33263BCB4C232719BD32D5B4E97B316765A1A722BA21652A07B3B7B33F0D11D29C9A46981221AE4C113ED38CD8A4942CA2E2C58E882476BCD9DA23BB5ED8171B73523C0F841684D35CC252CCE79062D4
310
468DFA43D7747CCF51DF7D4FFDEB5593E3AB9CCA9FBEFE241792E4E19EB28198C968BAB8199F5D5A67D3E9C49A9E8F47D6EC76B6B0469F26EEFC7C3EBFBCBEB98462213924694B38DD98FE1D62C393D073EA4FADC5DAF04326852CCF6958F90F0F2B9BB5C48816348F90C7840A68EB78EDF68723159BCEE7891A6B95DDE9D3
310
BCEAEEE8086A6C6F9E5D4B59F0175C10A7A0820BAA5055C7473B5AE3CFDD452D602CD5DF12616444529E90D448938013FE6EFA58AA96F85E4F8C42275708571E98FE6827AF6B2B4AE3D7D83D64E5A64C53054DD3AF90BD06FEA9149565C94FCA0F6B834DC85599E4F2423B24DF0B6AFA979E534DFA9E7A4CC6FA631D486393
310
921829879BF5D781A373557BCB85E97FB90DB62B558F8795179C15944B051F40AB495CF35451D26A4727654E6D8033BD98EF82F21D91FF8AF2DD9982BCF1643BDD4EB516C9492E368C67C88DED563FC36D5EACF66DFF057C3658BDBFA69DF9578B3DA735B64F18C7F20770A9D45CFCF7FCF563D6456A277DBEF78A02637CA2
310
43B90A490AEAB94F72244481D24819A6C0E59B606BFA4B3025981DBB48EAB701D97BF19C577CC77F2D1B6C55A9EF3C732474C0B727303F625995056C3B02963D9EAC146BE78EC5FCEC7FA999EBC5EACBAAE41B12D27B4D2C0BBA49F244E2ECDC81B76B502F113D8F5EE8FB1BE3111CDD4FC2AA9B844CAB1288B68AB90A7CDC
310
1C166AB0D3DC5310625FCC14E779BFD0709F8890A629C9292B1B2DED31A4B0DA928CEE135085754027E3018A397D4D5427D15BD1330B677DC8934285AC3DF45A9EB68FF8F2B8FC0A509AFEECFD0FF2DE25CC6047F7214B195F07EFEB9A094D800F7BFAE8FED187B78EA8A3A400F115961BCAD1215E47C966530AF0EE8128FE
310
58CEBB996A8964FFA529A046635D9353B0336A8F700DDF46271A024E70B0B37C9DE01847591E54DED53D54202AB947E4076556AC49C6CA5C9E1226B7F1A7B1BE15DEED62C41B91E1B3E9AFAAA735036547343A925075041DF0A9979E893B391F8FCFA6967B3EFB644DCF6E5CEBFAE272625DCC6FAF3FB93793C5F90CE1EF57
310
407342756B10D1C489E8953CD1617E5CEECAD6F4EF8914CE5D5D504E5C3F1F9736DA62CFC11E00BCDDB8CC8A9466349744C1F75EBDA4DF09BA8A9E8C7A7E9991989E20E5DBDD6A6003664ED8F7A04A8DBE0DF6EAD9B9AA858342E47399053949D2C146EDB85DE4B176BB0965FBAC19BD19AA918E27FA50C1D22402E144464C
310
59462568E704B6E71915404CB72B8FF4EDE184DDAF753F284990D2C6926782963815403548A70C657FDEF80D2D9CEAA2AE4C1C76F60BFE74219A06527D6582DF6412526107381E55E353090704D085B52408D0933C4ED159D79BDA71BB4BC506F4831350EB6F979CD22D69BF7AC49B91A2C0A9DDA3D5CA36AD20FC478E37E6
310
1844E2352865EBCB6EA275A652E3836BE04EFB400BF1A2556F515F1FBB35B2AB35BD889C744FFA1004B5544B121E57F70215746DD2F5E2C1412B602CBF19455AC6C8E5E9922C4E01E65215385004546899059180EAFCF7A707CE7017CD8CDB0410789AB32C63B91E5CEBBBACB17AC6CD347A022D5075FD106377347AAABA7E
310
7D11590744509B44E205134DC1290F06580320F78E537D3D73540E06CB970B431F185308AD40BBD794D6D77003C5A36E8EAA54BA64597CD8F83BD552A080A365F7FF06504B0304140006080000CC70623B000000000000000000000000350000006662782F39464131463745442D413632322D343644302D413938332D3331
310
353338454246344243312F76657274696365732E62696E504B0304140006080800CC70623BF270F1330600000004000000360000006662782F39464131463745442D413632322D343644302D413938332D3331353338454246344243312F747269616E676C65732E62696E636660600000504B0304140006080000CC70623B
310
000000000000000000000000370000006662782F39464131463745442D413632322D343644302D413938332D3331353338454246344243312F617474726962757465732E62696E504B0304140006080800CC70623B08DA0BD19000000041010000360000006662782F39464131463745442D413632322D343644302D413938
310
332D3331353338454246344243312F6469726563746F72792E786D6C858F410AC3201045AF22B36F53E9A60B35CBEEBAE80D244E44489C6234F4F835464A48035D0DF398FF9F8AF63D0E6CC63039F212F8F9020C7D47C6792B21C5FE7403D62A1188E2E60C98D7234A5830286103A55745067B9D86B8A3CF9C7F90C11DE607
310
FB144396D7B6A82D282E9A152AD114D5EF2CB866EEE831B8EEA07A7BB5A8D7D61A2BAAEB7FD5F70921FF497D00504B0304140006080800CC70623B0D6EF93BFE000000A00100003B0000006662782F39464131463745442D413632322D343644302D413938332D3331353338454246344243312F7265736F75726365732F63
310
6F72652E786D6C8D50596E833010BD0A9ADFCA60B334011947A8694ED00B586642AC041B79A97AFC9A40A5F6AF3F33A3B7689E1E3F7DCD8FEC139DD7D6F4C0720A191A65476DA61E62B892236427C19DB5E1970C322367EC618541F0C9D9B8EC90B226A009093576C41D94DE63804C3DD2D18357379C652E63480A7FCF17A9
310
EE72C29CE5894E3AC17D702940B63D59270887DE46A7D0F36263058F518FBB468FE9A7BE6A7420864373B8D4873369AA8691FA421B3294352543C5CAF65C0F6FEF43CB8BD52C78D0F34F46E550061C419494B6843142CB0F5677F4B52BEB177AEC28E5C52AFF638ACBF84F53D42654E51E77B379102C05791282176B5F693D
310
CB4C7BED567C03504B010214000A0000080000CC70623B3DEE336E79000000790000001B00000000000000000000000000000000006175746F6465736B2D64657369676E2D7061636B6167652E786D6C504B01021400140006080800CC70623BD486FD9CA0000000F40000001300000000000000000000000000B20000005B
310
436F6E74656E745F54797065735D2E786D6C504B01021400140006080800CC70623B1EC5D7A3EB0000007C010000080000000000000000000000000083010000636F72652E786D6C504B01021400140006080800CC70623B55019EA25F0000007C000000070000000000000000000000000094020000636E782E786D6C504B
310
01021400140006080800CC70623B8C9102E971010000D40300000C00000000000000000000000000180300006662782F636F72652E786D6C504B01021400140006080800CC70623BFFEA85907E0000009D0000000B00000000000000000000000000B30400006662782F636E782E786D6C504B01021400140006080800CC70
310
623B4FEEA4082C0100001202000031000000000000000000000000005A0500006662782F39464131463745442D413632322D343644302D413938332D3331353338454246344243312F636F72652E786D6C504B01021400140006080800CC70623BAD7543B64E010000330300003000000000000000000000000000D5060000
310
6662782F39464131463745442D413632322D343644302D413938332D3331353338454246344243312F636E782E786D6C504B01021400140006080800CC70623B16AB87BA640500003C1000003400000000000000000000000000710800006662782F39464131463745442D413632322D343644302D413938332D3331353338
310
454246344243312F6F626A656374732E786D6C504B01021400140006080000CC70623B0000000000000000000000003500000000000000000000000000270E00006662782F39464131463745442D413632322D343644302D413938332D3331353338454246344243312F76657274696365732E62696E504B01021400140006
310
080800CC70623BF270F133060000000400000036000000000000000000000000007A0E00006662782F39464131463745442D413632322D343644302D413938332D3331353338454246344243312F747269616E676C65732E62696E504B01021400140006080000CC70623B0000000000000000000000003700000000000000
310
000000000000D40E00006662782F39464131463745442D413632322D343644302D413938332D3331353338454246344243312F617474726962757465732E62696E504B01021400140006080800CC70623B08DA0BD190000000410100003600000000000000000000000000290F00006662782F39464131463745442D413632
310
322D343644302D413938332D3331353338454246344243312F6469726563746F72792E786D6C504B01021400140006080800CC70623B0D6EF93BFE000000A00100003B000000000000000000000000000D1000006662782F39464131463745442D413632322D343644302D413938332D3331353338454246344243312F7265
310
736F75726365732F636F72652E786D6C504B0506000000000E000E0080040000641100000000
  0
XRECORD
  5
175
102
{ACAD_REACTORS
330
173
102
}
330
173
100
AcDbXrecord
280
     1
270
     1
271
     1
  0
XRECORD
  5
174
102
{ACAD_REACTORS
330
173
102
}
330
173
100
AcDbXrecord
280
     1
270
     1
271
     1
  0
XRECORD
  5
1FB
102
{ACAD_REACTORS
330
173
102
}
330
173
100
AcDbXrecord
280
     1
 70
     0
 90
1673772943
  1
ECE7A1D2-D628-4531-984C-D00F80459256
310
504B03040A0000080000CC70623B3DEE336E79000000790000001B0000006175746F6465736B2D64657369676E2D7061636B6167652E786D6C3C3F786D6C2076657273696F6E3D22312E302220656E636F64696E673D227574662D3822203F3E3C666F726D6174733E3C666F726D61743E687474703A2F2F736368656D612E
310
6175746F6465736B2E636F6D2F64657369676E2D7061636B6167652F323030393C2F666F726D61743E3C2F666F726D6174733E504B0304140006080800CC70623BD486FD9CA0000000F4000000130000005B436F6E74656E745F54797065735D2E786D6C7D8EC10E82300C865F65E91D8A1E8C310C0EEA1BF002731658846E
310
D98AC1B77784ABF1D8FE5FBFBF75BBCE937A534CCEB38643598122B6FEE978D0B0485F9C41B54DDD7D022595594E1A469170414C76A4D9A4D207E29CF43ECE46F218070CC6BECC4078ACAA135ACF422C856C0E68EA1BF5669944DDD7BCDE7B1F8E415D77AECB980613C2E4AC91FC167A2B244592486606FC29C8FD7F045B9A
310
EF7053A7E60B504B0304140006080800CC70623BD9DDAED0EC0000007C01000008000000636F72652E786D6C8D90416EC3201045AF82665B61836D9CD8C2444DD39CA01740405C94182C03558F5F9C3852BBEB6A467FFE9B197D7EF89E6EE8CB2CC17A37002D0820E394D7D68D03A478C17B4007C117EFE32F1B20272733C0
310
2A83E0E3E2D3BC49CABB685CCCAAF3DA6CA20CC14440EA969B0182FA34932C648AD911AEC52CD5558EA6A0CF2EC329598D1E47ACCEFBECC59A050463A7EA5833865FEBDD0E37353BE3EE8DBDE3F6786A48D375FBF6CC78B9C282473B3DEFABC5C86834888A900E538A49F5419B9EB47DD5BC907D4F082F57FB1F28CDFA9F50
310
B22ED6D5F6EE030B20687EE43E10BC5CB3C8E51E54AE6B6EE207504B0304140006080800CC70623B55019EA25F0000007C00000007000000636E782E786D6C4DCB3B0E80201045D1AD90E915ED2CF8AC45050C11660C8261F98AB1B07AC9C97D42D718D865D3E909258CFD00CCE24AC6E326A164D74DC0B4128928FF326038
310
472BA13128B1252AC747C6BAB984FC68F0B87FE8960A5C09FE86CFB69FBA01504B0304140006080800CC70623BA24EB22D72010000D40300000C0000006662782F636F72652E786D6CC5535B6E833010BC8AE5DF0A6C5E49888CA3A6694ED00B38E05014B091B1518EDFE511A5A9D228FD2A1F60CDEC7A67C6986DCE4D8D7A
310
69BA4AAB0C073EC548AA5C17952A33ECECD15B61B4E1CC686DBF9561A44423333CC098B3D268D7CE50AE9595CA02AA74216750749DB418E5352C32DCE59FB211BE70162ABA93DF8AFC244AE9073ED050C759670D0840D390E18DF9F1706664C23973AE2A66B62A605A75ACA4C13C4976E1364A12EF355A2EBD384AF65EFA96
310
BC7B8BED2EA6719AAE16FB8491A199335B351775B991C2CA02F390D2D40B028F861F41BCA68B7518BFD0D59A524686F29B26D7164F36B94AD9289CE54E6D1DE6010819891F6E21228B3AD1831EC219194284CF98F06DD01008846CC5A1BEF83801D4CBDC6A1303536877A57A513B0953A94FC707FDBE6064EA84A9E3E6E0FA
310
EE8CF0E9198F7784A316AA0413C2C2F2E0ECA0934D1AE6D05A69BCDE9E91D2A611F573361E38FC1375157F5752AE6B6DFE4B11990F88CCBF0719EE23FF02504B0304140006080800CC70623B408A7D3B7C0000009D0000000B0000006662782F636E782E786D6C4DCCD10A83201886E15B91FFDC552A92A0064DBC8F581632
310
D3703A76F9ABD1C18E3E78F878E5F0D9027ABBFCF2292AE86E2D20171F69F6715550CB827B40839639A5F2770314A7CD293819B45C73AAFB45B35BA61ACAA1C1C7E7855C58C15BC331339661262CC762340413D68D77DA5B42298546CBE6573AF60CEB2F504B0304140006080800CC70623B449FB9BD290100001202000031
310
0000006662782F36394639363044362D344446342D343946362D394244322D3234314243333846323333332F636F72652E786D6C8D515B6EC32010BC0AE22B55850D98B871848994463E412FE002495162B07854397EA176A4F62F3F2C9A9D991D587EB84F37F0AD7D30CEF6905418026DA553C65E7A98E219ED203808EE9D
310
8B7F6810D871D23D2C3014FCE25D9A57483A1BB58D19B54EE9151C43D0110279CB971E06F9A5A7B11A53CC8C70ADE6515EC78BAE4895DB992778883E0700CB907242D17643D7E2538BD869608875438BBAE38922CAC8F1BDD90DB4691A5E2F42C153326A951B95E398B3D1FE599322163C9AE9115F7A3D46ADA0A018778810
310
84E907617BDCEE297BC5BB3DC6BC2EF47FA234AB2745C9D8D8D035EE220B50105E2F0DC1954B9FB747187D9F9D8FA0CCDB042D5FA0C015C65B42DF78BD10F3F3B363CB56C7109DCFDFBBB97E662ED92EB62D13BC2E1BCAE5777DB9966D8A1F504B0304140006080800CC70623BAD7543B64E01000033030000300000006662
310
782F36394639363044362D344446342D343946362D394244322D3234314243333846323333332F636E782E786D6CD593CD6EC32010845F0571AD6CE3D48AD20813A9873E410FBD12D82434182C7EAAE6EDBB2424CD25871E7B41D6EC30B3FA84F9E67BB2E40B4234DE8DB46F1925E094D7C6ED479AD3AE5951B2113C789FEE
310
6C943839C1488B4C05DF079FE72A69D8C96C13AAD6B8631503449F83828872B949AC57D26200B826A308D316B4064D6E46FCDA41C05550DC9E483A00797BFD207EFB092A45DE9514C1BBD22178396BD39D891265658C238DEA00936C654E5E433CB65A26D9F6EDB5EBC14EBF49A45CB856E66048291F6939A9A81BB5C89177
310
38143CA680F4AA299D66A042CEB3354A2684DC9D8D178FE0D9B8B41CAAD720F880EE7EF93C0C18769E099ECC04D5A102C8049A8A05632F4DDF376CF1DE0F6BB65C2F8627B65A33C6BB62177CEBBDAD973006829F89F22E814B54F4BC2BE347F8AA8F681390B50FA73F804400B5F542E796F19FF974E7F78DB802FE05E20750
310
4B0304140006080800CC70623B8D05915C650500003B100000340000006662782F36394639363044362D344446342D343946362D394244322D3234314243333846323333332F6F626A656374732E786D6CAD575B6FA33814FE2B887D06429276DA1565D4266D158D3A339A6846FB502932E050B66023DB74D2FDF5FB190C01
310
9276B2973C046C8ECFF53B17071F77456EBD502133CEAE6CDF9DD81665314F32965ED995DA3A17B6F5310C04E7AA47665B8C14F4CAD6DB7618A48257A5D94AE89654B91AEDDEDDFC61C998326A5B714EA4BCB265FC440BE2924AF184CA6737218AB8E976E7FA6E4338649B0A523E8D98964450A6A029F619B8588D52FE7039
310
B1BD30F0F4F730D0FF866AF6369557DB33949F31A9088B0F848DD8CCFCF9F2767A76E99CCDE733677E3EF59D9BBB9BA5E37F984D16E78BC5E5F5ED25044B25C0C96822E8D60EEFE11B91C581D77CEA34368A1F5329E68CD1B8B61F16D63A1B8E092D294B10C78C4A48EB593D192E7DED9BDEE7995E1B91FDEDD3ACEA9FE831
310
6A756F9F7D4D79F4274C90A7A04248AA51D5F8C718DAE06FB2F75AC4796EBE65D22A88A22223B995679120E2D50E41AA49C260C046A35368846B0BECD0DFF3EBEB8AD4F835768F69B9ADF25C43D30E6B646F807FAA64AD59F61715C7A54127C4AACA98BA3006A9D792DAE165E0D59B61A01FB3A9F9D838D2DAE62445C86166
310
F37564E842E7DE6A69879FEEA2DD5AE7E371E1A5E025154AC307D06A03D73EB5978C58FFA4C8E9033066E0F3BD53BEC1F39F91BE7B55103791EDE6BBB991A2046172CB4581D8B893FA674DDA17A77B3B7C413D1B511FD2743BFF8A38F03A658705E3ADF8015C3A3417FF3D7E439FF591DA0B5F18BC20C1B8981957AE6392A3
310
F43C640C01D1A0B4728E2DD4F26DB4B3C3152A252A3B4E913CEC1C72F012782FF88EFF8637AA552DBEF76408E8A8DE9E50F9E1CB3A2DA0DB1B6039A893B56063DC5B3E3FFB5F72E67AB9FEB4AEC496C4F4C1149625DD662C53E89D7BF0F6151A046260D1337DFDC94502430F83B0EE07A130A224BCAD7DAE1D9FB6CD422FF6
310
920702629C4BB9AE79C12F243C6432A6794E18E5552BA56B431AAB5D91317302B2B071E86C3A42B1A02F999E24061403B5D0EB639195DA655DD3EBEAB4FB862DDF579F014AD0E73C22F99E28DA57FB98E75C6CA2D74D53086D600F4786E0FE3144B771A8A7B900F03594DB8A633CBC49B2EDB69228BB479CF863B5E807AAAB
310
23872F6DFEB4129B949CA33823F58830E86D65621E10047D9DB34D862E8EAC3C2ABC2F7B2C40D67CDFE01F5545B92105AF983AC54D93D69E56FB8E797F88913F898A9FEC705D3F9D1B54EC8426FB500D40A03BD0119B06E1B95DDC7EB8F6975367793EBD70E66733DFB9BC982F9CE564727731999F5D4ECFCE3B8D6A4DC2A0
310
6D50FD148437D110834A64C6CDDF57FBACB5C307A2A477DFE4939736CFEF2B175371E0E10CF0DD1D5C15654E0BCA14D1E87DD02FF93782A162C0A3D95F1524A52770F972BF1EE9809D13CE7DD599467F8ECE9ADD85CE85A34CD45355448C64F9E8A031DC2D596ACC6E5DD93D9B82DE2EF5CAF81363A8E47996A0DE24564A79
310
4115AACE09C55E14540231FDA13C319787134EBF34E3A022514E5B4D9E0826E25C02D5805B15ABE1BEF51B26383D445DD9E875EE33FE4C22DA16427D65A3BCA92CA6D28DD01DF5DC53330704308475351050232CCD31583787BA75774AFB06E5070DD0C8EF484E19968C5D83BA5B90B244D31E54D55A372320FE4786B7EA58
310
44E135AA5467CB7EA333A61683CC6A8C3257034C10CF46F40EF9F5BE59BE5BD30C3C72D235E95D10345C1D45445A5F0BB47E46A5EBE5570F9380B5FA629579952296A773720405982B9DE04011506178964401AA8BDF1FBF0A8EAB6861DD6580C0E38217056766716DAEB2D6FA0917D3E4116581EADB879C4E7CFFB11EFACD
310
3D641311495D92C8676CB409A72D18610D803CE8A626049E8EC1887CB5B44CC39883690DDA8399B4B9855B481E7D71D4A9D22F96E5BB73BF5793020C02137BF837504B0304140006080000CC70623B000000000000000000000000350000006662782F36394639363044362D344446342D343946362D394244322D32343142
310
43333846323333332F76657274696365732E62696E504B0304140006080800CC70623BF270F1330600000004000000360000006662782F36394639363044362D344446342D343946362D394244322D3234314243333846323333332F747269616E676C65732E62696E636660600000504B0304140006080000CC70623B0000
310
00000000000000000000370000006662782F36394639363044362D344446342D343946362D394244322D3234314243333846323333332F617474726962757465732E62696E504B0304140006080800CC70623B08DA0BD19000000041010000360000006662782F36394639363044362D344446342D343946362D394244322D
310
3234314243333846323333332F6469726563746F72792E786D6C858F410AC3201045AF22B36F53E9A60B35CBEEBAE80D244E44489C6234F4F835464A48035D0DF398FF9F8AF63D0E6CC63039F212F8F9020C7D47C6792B21C5FE7403D62A1188E2E60C98D7234A5830286103A55745067B9D86B8A3CF9C7F90C11DE607FB14
310
4396D7B6A82D282E9A152AD114D5EF2CB866EEE831B8EEA07A7BB5A8D7D61A2BAAEB7FD5F70921FF497D00504B0304140006080800CC70623BCA768048FE000000A00100003B0000006662782F36394639363044362D344446342D343946362D394244322D3234314243333846323333332F7265736F75726365732F636F72
310
652E786D6C8D50596E833010BD0A9ADFCA60D600328E9AA639412F609909B1126CE4A5EAF16B0295DABFFECC8CDEA2797AECF8353F924FB44E193D409E5248504B332A3D0D10FC95B4901C39B3C6F85F3248B49871801506CE266BC2B243D2688FDA47549B11775038871E12F988C7004EDE7016A9083E2ADC3D5D84BC8B09
310
D33C8D74D471E6BC8D0192EDC93A815B742658898E651BCB59086ADC356A8C3FD555A1055ED7E7E254D615792D0F075295F585746FF53B694EE78A565DD736979A65AB9933AFE69F8CD2A2F038022F28ED489E135A7CE4554F9BBEA85E68DB53CAB255FEC71496F19FA6A0B42F8B3DEE6673C0F318E4497096AD7DC5F52C33
310
EEB55BFE0D504B010214000A0000080000CC70623B3DEE336E79000000790000001B00000000000000000000000000000000006175746F6465736B2D64657369676E2D7061636B6167652E786D6C504B01021400140006080800CC70623BD486FD9CA0000000F40000001300000000000000000000000000B20000005B436F
310
6E74656E745F54797065735D2E786D6C504B01021400140006080800CC70623BD9DDAED0EC0000007C010000080000000000000000000000000083010000636F72652E786D6C504B01021400140006080800CC70623B55019EA25F0000007C000000070000000000000000000000000095020000636E782E786D6C504B0102
310
1400140006080800CC70623BA24EB22D72010000D40300000C00000000000000000000000000190300006662782F636F72652E786D6C504B01021400140006080800CC70623B408A7D3B7C0000009D0000000B00000000000000000000000000B50400006662782F636E782E786D6C504B01021400140006080800CC70623B
310
449FB9BD290100001202000031000000000000000000000000005A0500006662782F36394639363044362D344446342D343946362D394244322D3234314243333846323333332F636F72652E786D6C504B01021400140006080800CC70623BAD7543B64E010000330300003000000000000000000000000000D20600006662
310
782F36394639363044362D344446342D343946362D394244322D3234314243333846323333332F636E782E786D6C504B01021400140006080800CC70623B8D05915C650500003B10000034000000000000000000000000006E0800006662782F36394639363044362D344446342D343946362D394244322D32343142433338
310
46323333332F6F626A656374732E786D6C504B01021400140006080000CC70623B0000000000000000000000003500000000000000000000000000250E00006662782F36394639363044362D344446342D343946362D394244322D3234314243333846323333332F76657274696365732E62696E504B010214001400060808
310
00CC70623BF270F13306000000040000003600000000000000000000000000780E00006662782F36394639363044362D344446342D343946362D394244322D3234314243333846323333332F747269616E676C65732E62696E504B01021400140006080000CC70623B00000000000000000000000037000000000000000000
310
00000000D20E00006662782F36394639363044362D344446342D343946362D394244322D3234314243333846323333332F617474726962757465732E62696E504B01021400140006080800CC70623B08DA0BD190000000410100003600000000000000000000000000270F00006662782F36394639363044362D344446342D
310
343946362D394244322D3234314243333846323333332F6469726563746F72792E786D6C504B01021400140006080800CC70623BCA768048FE000000A00100003B000000000000000000000000000B1000006662782F36394639363044362D344446342D343946362D394244322D3234314243333846323333332F7265736F
310
75726365732F636F72652E786D6C504B0506000000000E000E0080040000621100000000
  0
XRECORD
  5
176
102
{ACAD_REACTORS
330
173
102
}
330
173
100
AcDbXrecord
280
     1
270
     1
271
     1
  0
XRECORD
  5
177
102
{ACAD_REACTORS
330
173
102
}
330
173
100
AcDbXrecord
280
     1
270
     1
271
     1
  0
CELLSTYLEMAP
  5
CD3
102
{ACAD_REACTORS
330
162
102
}
330
162
100
AcDbCellStyleMap
 90
        3
300
CELLSTYLE
  1
TABLEFORMAT_BEGIN
 90
        5
170
     1
 91
        0
 92
    32768
 62
   257
 93
        1
300
CONTENTFORMAT
  1
CONTENTFORMAT_BEGIN
 90
        0
 91
        0
 92
      512
 93
        0
300

 40
0.0
140
1.0
 94
        5
 62
     0
340
11
144
6.0
309
CONTENTFORMAT_END
171
     1
301
MARGIN
  1
CELLMARGIN_BEGIN
 40
1.5
 40
1.5
 40
1.5
 40
1.5
 40
4.5
 40
4.5
309
CELLMARGIN_END
 94
        6
 95
        1
302
GRIDFORMAT
  1
GRIDFORMAT_BEGIN
 90
        0
 91
        1
 62
     0
 92
       -2
340
14
 93
        0
 40
1.125
309
GRIDFORMAT_END
 95
        2
302
GRIDFORMAT
  1
GRIDFORMAT_BEGIN
 90
        0
 91
        1
 62
     0
 92
       -2
340
14
 93
        0
 40
1.125
309
GRIDFORMAT_END
 95
        4
302
GRIDFORMAT
  1
GRIDFORMAT_BEGIN
 90
        0
 91
        1
 62
     0
 92
       -2
340
14
 93
        0
 40
1.125
309
GRIDFORMAT_END
 95
        8
302
GRIDFORMAT
  1
GRIDFORMAT_BEGIN
 90
        0
 91
        1
 62
     0
 92
       -2
340
14
 93
        0
 40
1.125
309
GRIDFORMAT_END
 95
       16
302
GRIDFORMAT
  1
GRIDFORMAT_BEGIN
 90
        0
 91
        1
 62
     0
 92
       -2
340
14
 93
        0
 40
1.125
309
GRIDFORMAT_END
 95
       32
302
GRIDFORMAT
  1
GRIDFORMAT_BEGIN
 90
        0
 91
        1
 62
     0
 92
       -2
340
14
 93
        0
 40
1.125
309
GRIDFORMAT_END
309
TABLEFORMAT_END
  1
CELLSTYLE_BEGIN
 90
        1
 91
        1
300
_TITLE
309
CELLSTYLE_END
300
CELLSTYLE
  1
TABLEFORMAT_BEGIN
 90
        5
170
     1
 91
        0
 92
        0
 62
   257
 93
        1
300
CONTENTFORMAT
  1
CONTENTFORMAT_BEGIN
 90
        0
 91
        0
 92
      512
 93
        0
300

 40
0.0
140
1.0
 94
        5
 62
     0
340
11
144
4.5
309
CONTENTFORMAT_END
171
     1
301
MARGIN
  1
CELLMARGIN_BEGIN
 40
1.5
 40
1.5
 40
1.5
 40
1.5
 40
4.5
 40
4.5
309
CELLMARGIN_END
 94
        6
 95
        1
302
GRIDFORMAT
  1
GRIDFORMAT_BEGIN
 90
        0
 91
        1
 62
     0
 92
       -2
340
14
 93
        0
 40
1.125
309
GRIDFORMAT_END
 95
        2
302
GRIDFORMAT
  1
GRIDFORMAT_BEGIN
 90
        0
 91
        1
 62
     0
 92
       -2
340
14
 93
        0
 40
1.125
309
GRIDFORMAT_END
 95
        4
302
GRIDFORMAT
  1
GRIDFORMAT_BEGIN
 90
        0
 91
        1
 62
     0
 92
       -2
340
14
 93
        0
 40
1.125
309
GRIDFORMAT_END
 95
        8
302
GRIDFORMAT
  1
GRIDFORMAT_BEGIN
 90
        0
 91
        1
 62
     0
 92
       -2
340
14
 93
        0
 40
1.125
309
GRIDFORMAT_END
 95
       16
302
GRIDFORMAT
  1
GRIDFORMAT_BEGIN
 90
        0
 91
        1
 62
     0
 92
       -2
340
14
 93
        0
 40
1.125
309
GRIDFORMAT_END
 95
       32
302
GRIDFORMAT
  1
GRIDFORMAT_BEGIN
 90
        0
 91
        1
 62
     0
 92
       -2
340
14
 93
        0
 40
1.125
309
GRIDFORMAT_END
309
TABLEFORMAT_END
  1
CELLSTYLE_BEGIN
 90
        2
 91
        1
300
_HEADER
309
CELLSTYLE_END
300
CELLSTYLE
  1
TABLEFORMAT_BEGIN
 90
        5
170
     1
 91
        0
 92
        0
 62
   257
 93
        1
300
CONTENTFORMAT
  1
CONTENTFORMAT_BEGIN
 90
        0
 91
        0
 92
      512
 93
        0
300

 40
0.0
140
1.0
 94
        2
 62
     0
340
11
144
4.5
309
CONTENTFORMAT_END
171
     1
301
MARGIN
  1
CELLMARGIN_BEGIN
 40
1.5
 40
1.5
 40
1.5
 40
1.5
 40
4.5
 40
4.5
309
CELLMARGIN_END
 94
        6
 95
        1
302
GRIDFORMAT
  1
GRIDFORMAT_BEGIN
 90
        0
 91
        1
 62
     0
 92
       -2
340
14
 93
        0
 40
1.125
309
GRIDFORMAT_END
 95
        2
302
GRIDFORMAT
  1
GRIDFORMAT_BEGIN
 90
        0
 91
        1
 62
     0
 92
       -2
340
14
 93
        0
 40
1.125
309
GRIDFORMAT_END
 95
        4
302
GRIDFORMAT
  1
GRIDFORMAT_BEGIN
 90
        0
 91
        1
 62
     0
 92
       -2
340
14
 93
        0
 40
1.125
309
GRIDFORMAT_END
 95
        8
302
GRIDFORMAT
  1
GRIDFORMAT_BEGIN
 90
        0
 91
        1
 62
     0
 92
       -2
340
14
 93
        0
 40
1.125
309
GRIDFORMAT_END
 95
       16
302
GRIDFORMAT
  1
GRIDFORMAT_BEGIN
 90
        0
 91
        1
 62
     0
 92
       -2
340
14
 93
        0
 40
1.125
309
GRIDFORMAT_END
 95
       32
302
GRIDFORMAT
  1
GRIDFORMAT_BEGIN
 90
        0
 91
        1
 62
     0
 92
       -2
340
14
 93
        0
 40
1.125
309
GRIDFORMAT_END
309
TABLEFORMAT_END
  1
CELLSTYLE_BEGIN
 90
        3
 91
        2
300
_DATA
309
CELLSTYLE_END
  0
ENDSEC
  0
SECTION
  2
ACDSDATA
 70
     2
 71
     8
  0
ACDSSCHEMA
 90
        0
  1
AcDb_Thumbnail_Schema
  2
AcDbDs::ID
280
    10
 91
        8
  2
Thumbnail_Data
280
    15
 91
        0
101
ACDSRECORD
 95
        0
 90
        1
  2
AcDbDs::TreatedAsObjectData
280
     1
291
     1
101
ACDSRECORD
 95
        0
 90
        2
  2
AcDbDs::Legacy
280
     1
291
     1
101
ACDSRECORD
  1
AcDbDs::ID
 90
        3
  2
AcDs:Indexable
280
     1
291
     1
101
ACDSRECORD
  1
AcDbDs::ID
 90
        4
  2
AcDbDs::HandleAttribute
280
     7
282
     1
  0
ACDSSCHEMA
 90
        1
  1
AcDbDs::TreatedAsObjectDataSchema
  2
AcDbDs::TreatedAsObjectData
280
     1
 91
        0
  0
ACDSSCHEMA
 90
        2
  1
AcDbDs::LegacySchema
  2
AcDbDs::Legacy
280
     1
 91
        0
  0
ACDSSCHEMA
 90
        3
  1
AcDbDs::IndexedPropertySchema
  2
AcDs:Indexable
280
     1
 91
        0
  0
ACDSSCHEMA
 90
        4
  1
AcDbDs::HandleAttributeSchema
  2
AcDbDs::HandleAttribute
280
     7
 91
        1
284
     1
  0
ACDSRECORD
 90
        0
  2
AcDbDs::ID
280
    10
320
22
  2
Thumbnail_Data
280
    15
 94
     1628
310
89504E470D0A1A0A0000000D49484452000001000000007C0803000000B13B9E5A00000300504C5445212830FFFFFF2128300000000000000000000000000000000000000000000000000000330000660000990000CC0000FF0033000033330033660033990033CC0033FF0066000066330066660066990066CC0066FF0099
310
000099330099660099990099CC0099FF00CC0000CC3300CC6600CC9900CCCC00CCFF00FF0000FF3300FF6600FF9900FFCC00FFFF3300003300333300663300993300CC3300FF3333003333333333663333993333CC3333FF3366003366333366663366993366CC3366FF3399003399333399663399993399CC3399FF33CC00
310
33CC3333CC6633CC9933CCCC33CCFF33FF0033FF3333FF6633FF9933FFCC33FFFF6600006600336600666600996600CC6600FF6633006633336633666633996633CC6633FF6666006666336666666666996666CC6666FF6699006699336699666699996699CC6699FF66CC0066CC3366CC6666CC9966CCCC66CCFF66FF0066
310
FF3366FF6666FF9966FFCC66FFFF9900009900339900669900999900CC9900FF9933009933339933669933999933CC9933FF9966009966339966669966999966CC9966FF9999009999339999669999999999CC9999FF99CC0099CC3399CC6699CC9999CCCC99CCFF99FF0099FF3399FF6699FF9999FFCC99FFFFCC0000CC00
310
33CC0066CC0099CC00CCCC00FFCC3300CC3333CC3366CC3399CC33CCCC33FFCC6600CC6633CC6666CC6699CC66CCCC66FFCC9900CC9933CC9966CC9999CC99CCCC99FFCCCC00CCCC33CCCC66CCCC99CCCCCCCCCCFFCCFF00CCFF33CCFF66CCFF99CCFFCCCCFFFFFF0000FF0033FF0066FF0099FF00CCFF00FFFF3300FF3333
310
FF3366FF3399FF33CCFF33FFFF6600FF6633FF6666FF6699FF66CCFF66FFFF9900FF9933FF9966FF9999FF99CCFF99FFFFCC00FFCC33FFCC66FFCC99FFCCCCFFCCFFFFFF00FFFF33FFFF66FFFF99FFFFCCFFFFFF0000000D0D0D1A1A1A2828283535354343435050505D5D5D6B6B6B787878868686939393A1A1A1AEAEAEBB
310
BBBBC9C9C9D6D6D6E4E4E4F1F1F1FFFFFF0000000000000000000000000000000000000000000000000000000000002E4550F1000002FB4944415478DAED9CEB6E83300C85F3FEEF7BFE4F5B21716CA70D2DD5641F236D425B8B948FE36B0CADD551471D371FF8DA11058039B9FBC20100E07172EF6D2E00E50382F98046EC
310
03BEA1A802101DC0C7A61D1E40F357CF04E05706FDFF8F532405E0C8FC00704ABEDF7F2A00C3E887674B6E020E004A059CF75A787D6118144EF0B8E113009C1838A2800FA0B103005B1E40AC800200B97EBA28F0B77C69F3E504697D0098008C3CF0A8036705800640BFD7CA0982CD041A7314A0CA04BD7E805A6F57C06E67
310
300580C904E60F263781230AD064825EF7F7BA0F988591A516D86F89212980674D51E10E8C6748560E0B056091392A03C9B93384E646809E388BCBC5077094C418D571FF9BFDECA9006113F133C1DDFDD19E304012CAB93D0E4F014400FC82780670BAC22C00302703BE0718514044CE840016214025CAC8EC0396F102FA37
310
D38C504F0EA60A2A28803766FCA6123ABC0FC0DB04C4490213B84840FD44CC046DCA6F483C8182BEF8B0B5803B20E27444D65690A41A34FB026A4666B71D125D01687A67A85D9DFF0E3F23D4DCAEA8F39D45AD18BF1C1E75BE02000A00DA05B4AB23D30101CCCBC3BC3DDED3DD5D779000C067CFC3C437810F9F0D0AAD00A8
310
264F7782CE33032B02511580290828005E4B281B0093DD2A05586259019C71C09800D6A1328509E84D620BC00C12E402D0204B616B02B204CEAA80C182128014033B00530D8E7E678F88D90034CC41C077824C00A66268F4FF01932B2603B0CAFC758CCC07E0D24B12D6D550F062087D5270D1127BB9F99103C093A628AE4A
310
2B5E2D400AC0690AE814517C30B509D830B89A92CC6A02666708B75D380A0095195F5955D231B9FDE1817A9152018803E02BEF110BF736B93BEF294A01A580524029201480BD97646E6F8E6755C0F62679012827185901A8305861B014500A604C84B6C36099404213580F052F66474B010915007627885D27F8DA142A0C12
310
5683E6ED11A5002205940968126502C44EB03F525251A00050022827C8A0808A022F8DA00070E701D5152657000D007A051002F8771FF003BCEF9EB07A5719730000000049454E44AE4260823FFD3933FDE7E91FCCF3751F71E67F8E0000000049454E44AE426082
  0
ENDSEC
  0
EOF
